<?xml version="1.0" standalone="no"?>
<!DOCTYPE svg PUBLIC "-//W3C//DTD SVG 1.1//EN" "http://www.w3.org/Graphics/SVG/1.1/DTD/svg11.dtd" >
<svg xmlns="http://www.w3.org/2000/svg" xmlns:xlink="http://www.w3.org/1999/xlink" version="1.1">
<metadata>
Created by FontForge 20170731 at Wed Dec 16 17:25:45 2020
 By Aleksey,,,
TypeJuice(c) 2020
</metadata>
<defs>
<font id="JoyrideSTD" horiz-adv-x="1882" >
  <font-face 
    font-family="Joyride STD"
    font-weight="400"
    font-stretch="normal"
    units-per-em="2048"
    panose-1="0 0 0 0 0 0 0 0 0 0"
    ascent="1638"
    descent="-410"
    x-height="1035"
    cap-height="1434"
    bbox="-317 -518 4295 1961"
    underline-thickness="102"
    underline-position="-409"
    unicode-range="U+000A-F033"
  />
<missing-glyph horiz-adv-x="1079" 
d="M102 1434h875v-1434h-875v1434zM160 1393l379 -633l381 633h-760zM514 717l-369 614v-1231zM541 674l-379 -631h758zM565 717l371 -621v1239z" />
    <glyph glyph-name=".notdef" horiz-adv-x="1079" 
d="M102 1434h875v-1434h-875v1434zM160 1393l379 -633l381 633h-760zM514 717l-369 614v-1231zM541 674l-379 -631h758zM565 717l371 -621v1239z" />
    <glyph glyph-name=".null" horiz-adv-x="0" 
 />
    <glyph glyph-name=".null" horiz-adv-x="0" 
 />
    <glyph glyph-name="nonmarkingreturn" horiz-adv-x="682" 
 />
    <glyph glyph-name="controlLF" unicode="&#xa;" horiz-adv-x="0" 
 />
    <glyph glyph-name="controlCR" unicode="&#xd;" horiz-adv-x="0" 
 />
    <glyph glyph-name="space" unicode=" " horiz-adv-x="942" 
 />
    <glyph glyph-name="exclam" unicode="!" horiz-adv-x="663" 
d="M551 573h-438v861h438v-861zM551 -1h-438v345h438v-345z" />
    <glyph glyph-name="quotedbl" unicode="&#x22;" horiz-adv-x="974" 
d="M74 1089v345h344v-345l-120 -275h-104zM556 1434h344v-345l-120 -275h-104l-120 275v345z" />
    <glyph glyph-name="numbersign" unicode="#" horiz-adv-x="1638" 
d="M1536 1182v-344h-251v-244h251v-344h-251v-251h-344v251h-244v-251h-344v251h-251v344h251v244h-251v344h251v250h344v-250h244v250h344v-250h251zM941 594v244h-244v-244h244z" />
    <glyph glyph-name="dollar" unicode="$" horiz-adv-x="1837" 
d="M1736 944h-431v43q0 110 -215 135v-234q126 -7 215.5 -22t168.5 -44t134 -78t91 -120q37 -73 37 -181t-35 -190q-49 -116 -166 -187q-148 -89 -445 -107v-162h-344v162q-277 17 -416 92q-46 25 -84.5 58.5t-72.5 81t-53.5 112t-19.5 139.5v43h431v-43q0 -110 215 -135
v235q-126 7 -215.5 21.5t-168.5 43.5t-134 78t-91 120q-37 73 -37 181t35 190q49 117 166 188q148 89 445 107v162h344v-163q277 -17 416 -92q46 -25 84.5 -58.5t72.5 -81t53.5 -112t19.5 -139.5v-43zM746 903v222q-114 -10 -164.5 -38.5t-50.5 -84.5q0 -53 49 -72.5
t166 -26.5zM1305 428q0 28 -12.5 45.5t-42.5 28t-65.5 15.5t-94.5 9v-222q113 10 164 38.5t51 85.5z" />
    <glyph glyph-name="percent" unicode="%" horiz-adv-x="2267" 
d="M2186 414q21 -49 23 -121q0 -99 -45 -165.5t-113 -104.5q-64 -35 -130 -50.5t-207 -15.5q-145 0 -214.5 16.5t-141.5 60.5q-81 49 -115 129q-22 52 -24 120q0 182 159 270q64 36 129.5 51.5t206.5 15.5q145 0 215 -17t142 -60q81 -49 115 -129zM1714 194q81 0 139.5 25.5
t58.5 73.5q0 33 -30 53.5t-72 28t-96 7.5q-81 0 -139.5 -25.5t-58.5 -73.5q0 -33 30 -53.5t72 -28t96 -7.5zM889 881q-64 -36 -130 -51.5t-207 -15.5q-145 0 -214.5 16.5t-141.5 60.5q-81 49 -115 129q-22 52 -24 121q0 182 159 270q64 35 129.5 50.5t206.5 15.5
q145 0 215 -17t142 -60q79 -48 114 -129q22 -52 24 -120q0 -99 -45 -165.5t-113 -104.5zM354 1141q0 -33 30 -53.5t72 -28t96 -7.5q81 0 139.5 25.5t58.5 73.5q0 33 -30 53.5t-72 28t-96 7.5q-81 0 -139.5 -25.5t-58.5 -73.5zM1435 1434h422l-1019 -1434h-422z" />
    <glyph glyph-name="ampersand" unicode="&#x26;" horiz-adv-x="2455" 
d="M1943 594h440v-236q0 -226 -118 -346l117 -81l-236 -340l-371 257q-99 -7 -228 -7h-637q-118 0 -210.5 5.5t-182 20.5t-155 39.5t-122 64t-92 93.5t-55 127.5t-19.5 166.5q0 205 91 317t272 158q-45 87 -45 242q0 108 25 190.5t77.5 139t120.5 94t167 58t204 28.5t243 8
q118 0 210.5 -5.5t182 -20.5t155 -40t122 -64.5t92 -93.5t55 -127.5t19.5 -166.5h-438q0 24 -4 43.5t-15 34.5t-21 26.5t-31.5 20t-37 14.5t-46.5 10t-50.5 6t-59.5 3t-63 1h-70q-78 0 -115 -1t-93.5 -5t-82.5 -14t-56 -27t-41 -45t-11 -67q0 -23 3.5 -37t23 -38.5
t58.5 -52.5q36 -26 994 -689q36 34 36 100zM910 199h357l-459 318q-76 -1 -124.5 -7t-90.5 -22.5t-61.5 -48.5t-19.5 -81q0 -24 4 -43.5t15 -34.5t21 -26.5t31.5 -20t37 -14.5t46.5 -10t50.5 -6t59.5 -3t63 -1h70z" />
    <glyph glyph-name="quotesingle" unicode="'" horiz-adv-x="493" 
d="M74 1434h344v-345l-120 -275h-104l-120 275v345z" />
    <glyph glyph-name="parenleft" unicode="(" horiz-adv-x="774" 
d="M598 162q62 -98 141 -172l-215 -268q-14 11 -39.5 34t-79 87t-99.5 137q-91 146 -142 309q-64 207 -64 428t64 428q51 163 142 309q46 73 99.5 137t79 87t39.5 34l215 -269l1 1l-1 -1q-79 -69 -149 -184q-145 -239 -145 -542q0 -311 153 -555z" />
    <glyph glyph-name="parenright" unicode=")" horiz-adv-x="774" 
d="M608 1145q64 -207 64 -428t-64 -428q-52 -166 -141 -309q-46 -73 -99.5 -137t-79 -87t-39.5 -34l-215 268l1 1q72 63 140 171q153 244 153 555q0 301 -146 542q-70 116 -148 184l-1 1l1 -1l215 269q14 -11 39.5 -34t79 -87t99.5 -137q89 -143 141 -309z" />
    <glyph glyph-name="asterisk" unicode="*" horiz-adv-x="735" 
d="M673 1128l-132 -42l82 -113l-174 -126l-82 112l-81 -112l-174 126l81 113l-132 42l67 205l132 -43v139h215v-139l132 43z" />
    <glyph glyph-name="plus" unicode="+" horiz-adv-x="1288" 
d="M816 889h401v-344h-401v-402h-345v402h-401v344h401v402h345v-402z" />
    <glyph glyph-name="comma" unicode="," horiz-adv-x="534" 
d="M66 405h401v-402l-201 -321h-140l100 321h-160v402z" />
    <glyph glyph-name="hyphen" unicode="-" horiz-adv-x="1267" 
d="M1207 545h-1148v344h1148v-344z" />
    <glyph glyph-name="period" unicode="." horiz-adv-x="534" 
d="M467 0h-401v402h401v-402z" />
    <glyph glyph-name="slash" unicode="/" horiz-adv-x="1505" 
d="M1053 1434h423l-1019 -1435h-422z" />
    <glyph glyph-name="zero" unicode="0" horiz-adv-x="2019" 
d="M1009 1473q229 0 395.5 -40t285 -128.5t176.5 -234.5t58 -353q0 -177 -39 -307.5t-110.5 -216.5t-186.5 -138t-254 -73.5t-325 -21.5q-175 0 -310.5 21t-252.5 73.5t-193 138t-118.5 217t-42.5 307.5q0 207 58.5 353t177 234.5t285 128.5t396.5 40zM570 717q0 -32 1 -47
l739 382q-98 63 -301 63q-111 0 -188 -17.5t-135.5 -61.5t-87 -122.5t-28.5 -196.5zM1009 319q110 0 186.5 17.5t135.5 61.5t87 122.5t28 196.5q0 32 -1 47l-737 -382q99 -63 301 -63z" />
    <glyph glyph-name="one" unicode="1" horiz-adv-x="868" 
d="M386 1434h359v-1434h-438v916h-239v318q95 7 180.5 63t137.5 137z" />
    <glyph glyph-name="two" unicode="2" horiz-adv-x="1888" 
d="M943 518q-86 -11 -147.5 -20.5t-105 -18t-71 -20t-43 -19.5t-22.5 -23t-8.5 -25t-1.5 -31v-3h1235v-358h-1673v358q0 58 6.5 106.5t24 88t34.5 71t52 57.5t60.5 44.5t77.5 35.5t86 27.5t101 23t108 19.5t122 19q35 5 55 8t51.5 8.5t58.5 9.5q34 6 76 12t71 10t62 9.5
t55.5 10t46 11.5t38 14.5t26.5 18t17.5 24t5.5 29.5q0 68 -86 84t-311 16q-78 0 -115 -1t-93.5 -5t-82.5 -14t-56 -27t-41 -45t-11 -67h-439q0 93 19.5 166.5t55 127.5t92.5 93.5t123 64t155.5 39.5t182 20.5t210.5 5.5q141 0 248.5 -8t205.5 -27t166 -52.5t119 -83.5
t75 -121.5t24 -165.5q0 -64 -9 -114.5t-22.5 -91.5t-45.5 -73.5t-62 -57t-89 -45t-109 -35t-140 -29.5t-164 -25t-198 -26z" />
    <glyph glyph-name="three" unicode="3" horiz-adv-x="1908" 
d="M1616 717q94 -41 141 -117.5t47 -201.5q0 -80 -19 -143t-52.5 -109t-90.5 -79t-122.5 -53.5t-159 -32.5t-189 -16.5t-223.5 -4.5q-126 0 -223.5 5.5t-189.5 20.5t-158.5 40t-122.5 64t-90.5 93.5t-53 128t-18.5 166.5h438q0 -24 4 -43.5t15 -34.5t21.5 -26.5t33 -20
t38 -14.5t48 -10t53 -6t63 -3t67 -1h75.5q210 0 312 24.5t102 94.5q0 32 -15 53t-44 33t-69.5 18.5t-93.5 9t-114 4.5q-52 1 -79 2h-199v318h199q219 8 246 10q127 12 157 61q12 20 12 49q0 70 -102 94.5t-312 24.5h-75.5t-67 -1t-63 -3t-53 -6t-48 -10t-38 -14.5t-33 -20
t-21.5 -26.5t-15 -34.5t-4 -43.5h-438q0 93 18.5 166.5t53 127.5t90.5 93t122.5 64t158.5 40t189 20.5t224 5.5q128 0 223.5 -4.5t189 -16.5t159 -32.5t122.5 -53.5t90.5 -79t52.5 -109t19 -143q0 -125 -47 -201t-141 -117z" />
    <glyph glyph-name="four" unicode="4" horiz-adv-x="1716" 
d="M1505 518h120v-359h-120v-159h-438v159h-995v400l995 875h438v-916zM1067 518v461l-525 -461h525z" />
    <glyph glyph-name="five" unicode="5" horiz-adv-x="1886" 
d="M950 956q186 0 317 -13.5t233.5 -45t163 -86.5t91 -136.5t30.5 -196.5q0 -123 -30.5 -211t-91 -148t-163 -94.5t-234 -49.5t-316.5 -15q-162 0 -283.5 12.5t-223 43t-168 80.5t-107 125t-51.5 177h498q62 -79 335 -79q136 0 216 18.5t110.5 52.5t30.5 88q0 55 -29.5 88
t-109 52t-218.5 19q-273 0 -335 -79h-502v876h1632v-359h-1194v-168q183 49 399 49z" />
    <glyph glyph-name="six" unicode="6" horiz-adv-x="1857" 
d="M1039 892q354 0 537 -103.5t183 -310.5q0 -106 -23 -184.5t-79.5 -143.5t-150.5 -105.5t-235.5 -62.5t-334.5 -22q-171 0 -297.5 17t-221 56t-155 95.5t-97.5 144.5t-52 193.5t-15 250.5q0 142 17.5 250t58 194t104 143.5t158 96t216.5 55.5t284 17q409 0 603 -118.5
t216 -398.5h-439q-6 43 -23.5 71.5t-44.5 46t-75.5 26.5t-101 12t-135.5 3q-118 0 -188 -10t-121 -40t-71 -84.5t-20 -144.5q63 28 169.5 42t333.5 14zM936 319q49 0 73.5 0.5t67.5 2t65.5 5t54 10t48 16.5t34 24.5t24.5 34.5t7 46t-7 46t-24.5 34.5t-34 24.5t-48 16.5
t-54 10t-65.5 5t-67.5 2t-73.5 0.5q-50 0 -74.5 -0.5t-67.5 -2t-66 -5t-55 -10t-48.5 -16.5t-34 -24.5t-24.5 -34.5t-7 -46t7 -46t24.5 -34.5t34 -24.5t48.5 -16.5t55 -10t66 -5t67.5 -2t74.5 -0.5z" />
    <glyph glyph-name="seven" unicode="7" horiz-adv-x="1644" 
d="M72 1434h1513v-359l-996 -1075h-517l995 1075h-995v359z" />
    <glyph glyph-name="eight" unicode="8" horiz-adv-x="1865" 
d="M1589 748q180 -115 180 -350q0 -238 -193 -338t-643 -100q-429 0 -633 102t-204 336t181 350q-141 87 -141 267q0 80 25 147t84 125.5t149 99t226.5 63.5t311.5 23t312 -23t227.5 -63.5t149 -99t83.5 -125.5t25 -147q0 -180 -140 -267zM932 1115q-201 0 -279.5 -28
t-78.5 -91t78.5 -91.5t279.5 -28.5q138 0 217.5 14t110.5 39t31 67q0 63 -78 91t-281 28zM933 319q159 0 245.5 14.5t119.5 43.5t33 81t-33 81t-119.5 43.5t-245.5 14.5q-160 0 -246.5 -14.5t-119.5 -43.5t-33 -81t33 -81t119.5 -43.5t246.5 -14.5z" />
    <glyph glyph-name="nine" unicode="9" horiz-adv-x="1857" 
d="M922 1473q171 0 297.5 -16.5t220.5 -56t154.5 -96t98 -144t52 -193t14.5 -250.5q0 -214 -40.5 -354.5t-139 -232.5t-257 -131t-400.5 -39q-408 0 -603 119t-217 399h439q6 -43 23.5 -71.5t45 -46t76 -26.5t101 -12t135.5 -3q94 0 155 6t111.5 22.5t77.5 48.5t41 80.5
t14 120.5q-62 -28 -168.5 -41.5t-334.5 -13.5q-354 0 -537 103.5t-183 310.5q0 106 23.5 184.5t80 143.5t150 105.5t235.5 62t335 21.5zM922 836q48 0 74 0.5t68 2t65.5 5t55 10t48.5 17t34 25t24 34.5t7 46t-7 46t-24.5 34.5t-34 24.5t-48.5 16.5t-54.5 10t-65.5 5t-67.5 2
t-74.5 0.5q-49 0 -73.5 -0.5t-67.5 -2t-65.5 -5t-54.5 -10t-48.5 -16.5t-34 -24.5t-24.5 -34.5t-7 -46t7 -46t24.5 -34.5t34.5 -25t48 -17t54.5 -10t65 -5t67.5 -2t74 -0.5z" />
    <glyph glyph-name="colon" unicode=":" horiz-adv-x="587" 
d="M494 671h-402v402h402v-402zM494 2h-402v402h402v-402z" />
    <glyph glyph-name="semicolon" unicode=";" horiz-adv-x="587" 
d="M494 674h-402v401h402v-401zM92 3v402h402v-402l-201 -321h-141l101 321h-161z" />
    <glyph glyph-name="less" unicode="&#x3c;" horiz-adv-x="901" 
d="M795 1434v-421l-420 -294l420 -302v-424l-717 516v422z" />
    <glyph glyph-name="equal" unicode="=" horiz-adv-x="1314" 
d="M1231 874h-1147v344h1147v-344zM1231 215h-1147v344h1147v-344z" />
    <glyph glyph-name="greater" unicode="&#x3e;" horiz-adv-x="901" 
d="M104 1434l718 -503v-422l-718 -516v424l420 302l-420 294v421z" />
    <glyph glyph-name="question" unicode="?" horiz-adv-x="1765" 
d="M1114 0h-438v319h438v-319zM873 1473q141 0 247 -7.5t202 -27t161.5 -53t114 -84t71 -121.5t22.5 -165q0 -44 -2 -78.5t-10 -65t-15 -53.5t-24.5 -45t-32.5 -37.5t-44.5 -32.5t-53.5 -28t-67.5 -27t-78.5 -27t-94 -29q-11 -3 -34.5 -10t-30.5 -9.5t-24 -8t-20.5 -9
t-14.5 -10t-13 -13t-8 -16t-6.5 -21t-2 -25.5t-1.5 -32h-441q0 65 1.5 96t9.5 79.5t25.5 73t49.5 59.5t81.5 57.5t121.5 48t169 48.5q42 10 67 21t36 26.5t13.5 29t2.5 38.5q0 69 -78.5 84.5t-298.5 15.5q-77 0 -113 -1t-90.5 -5t-78.5 -14t-51 -27t-37 -45t-10 -67h-438
q0 93 18.5 166.5t52 127.5t88.5 93.5t118.5 64t151.5 39.5t179.5 20.5t209.5 5.5z" />
    <glyph glyph-name="at" unicode="@" horiz-adv-x="1781" 
d="M1163 1473q140 0 258.5 -69t188 -187.5t69.5 -258.5v-482q0 -119 -84.5 -203.5t-203.5 -84.5q-107 0 -188 70t-97 174q-22 -16 -33 -22q-102 -62 -272 -62q-175 0 -285.5 96t-110.5 275t110.5 275t285.5 96q170 0 272 -62v37h272h5v-589q0 -17 12 -29t29 -12t29 12t12 29
v482q0 111 -79 189.5t-190 78.5h-541q-111 0 -189.5 -78.5t-78.5 -189.5v-482q0 -111 78.5 -189.5t189.5 -78.5h454v-248h-454q-105 0 -200.5 41t-164.5 110t-110 164.5t-41 200.5v482q0 140 69.5 258.5t188 187.5t258.5 69h541zM875 546q91 0 144.5 48.5t53.5 124.5
q0 173 -198 173t-198 -173t198 -173z" />
    <glyph glyph-name="A" unicode="A" 
d="M1405 0l-78 159h-771l-79 -159h-479l703 1434h479l703 -1434h-478zM1148 518l-209 427l-210 -427h419z" />
    <glyph glyph-name="B" unicode="B" horiz-adv-x="1820" 
d="M1577 753q83 -57 131 -146.5t48 -193.5q0 -171 -121 -292t-292 -121h-1220v1434h1140q171 0 292 -121t121 -292q0 -153 -99 -268zM1138 1075h-577v-199h577q41 0 70.5 29.5t29.5 70.5t-29.5 70t-70.5 29zM1218 358q41 0 70.5 29.5t29.5 70.5t-29.5 70.5t-70.5 29.5h-657
v-200h657z" />
    <glyph glyph-name="C" unicode="C" horiz-adv-x="1957" 
d="M1406 558h487q-16 -139 -64.5 -241.5t-123 -170.5t-184 -109.5t-238.5 -59t-297 -17.5q-175 0 -310.5 21t-252 73.5t-192.5 138t-118.5 217t-42.5 307.5q0 207 58 353t176.5 234.5t285 128.5t396.5 40q206 0 360.5 -32t271 -102t184.5 -185.5t90 -277.5h-486
q-34 134 -136 186.5t-284 52.5q-111 0 -187.5 -17.5t-135.5 -61.5t-87 -122.5t-28 -196.5t28 -196.5t87 -122.5t135.5 -61.5t187.5 -17.5q179 0 282 53t138 186z" />
    <glyph glyph-name="D" unicode="D" horiz-adv-x="1902" 
d="M959 0h-836v1434h836q219 0 378 -38t272.5 -122t169 -222.5t55.5 -334.5q0 -168 -37 -291.5t-106 -205t-179 -131t-242.5 -69.5t-310.5 -20zM561 358h398q86 0 148.5 8t120 31.5t93 62.5t56 103.5t20.5 153.5t-20.5 153t-55.5 103.5t-92 62.5t-120 31t-150 8h-398v-717z
" />
    <glyph glyph-name="E" unicode="E" horiz-adv-x="1691" 
d="M561 358h1035v-358h-1473v1434h1473v-359h-1035v-179h956v-358h-956v-180z" />
    <glyph glyph-name="F" unicode="F" horiz-adv-x="1609" 
d="M561 0h-438v1434h1433v-359h-995v-179h916v-358h-916v-538z" />
    <glyph glyph-name="G" unicode="G" horiz-adv-x="1996" 
d="M1025 757h876v-757h-318v63q-205 -103 -597 -103q-175 0 -310.5 21t-252 73.5t-192.5 138t-118.5 217t-42.5 307.5q0 207 58 353t176.5 234.5t285 128.5t396.5 40q402 0 624.5 -130t274.5 -427h-491q-41 111 -140.5 155t-267.5 44q-111 0 -188 -17.5t-135.5 -61.5
t-87 -122.5t-28.5 -196.5t28.5 -196.5t87 -122.5t135.5 -61.5t188 -17.5q132 0 221.5 27t141.5 92h-324v319z" />
    <glyph glyph-name="H" unicode="H" horiz-adv-x="1918" 
d="M1357 1434h438v-1434h-438v538h-796v-538h-438v1434h438v-538h796v538z" />
    <glyph glyph-name="I" unicode="I" horiz-adv-x="684" 
d="M561 0h-438v1434h438v-1434z" />
    <glyph glyph-name="J" unicode="J" horiz-adv-x="1724" 
d="M1628 1434v-717q0 -146 -28 -263t-81.5 -199t-124 -140t-162.5 -91.5t-189 -48.5t-211 -15q-139 0 -252.5 21t-217 74t-174 137t-112 217.5t-41.5 307.5h438q0 -93 18.5 -163.5t50 -114.5t78 -71.5t97.5 -38t115 -10.5q63 0 113.5 10.5t97.5 38t78.5 71.5t50 114.5
t18.5 163.5v717h438z" />
    <glyph glyph-name="K" unicode="K" horiz-adv-x="1722" 
d="M1018 810l698 -810h-558l-447 519l-150 -142v-377h-438v1434h438v-529l557 529h558z" />
    <glyph glyph-name="L" unicode="L" horiz-adv-x="1581" 
d="M561 358h995v-358h-1433v1434h438v-1076z" />
    <glyph glyph-name="M" unicode="M" horiz-adv-x="2318" 
d="M1636 1434h558v-1434h-438v796l-399 -796h-398l-398 796v-796h-438v1434h557l478 -956z" />
    <glyph glyph-name="N" unicode="N" horiz-adv-x="1959" 
d="M1397 1434h438v-1434h-517l-757 851v-851h-438v1434h478l796 -896v896z" />
    <glyph glyph-name="O" unicode="O" horiz-adv-x="1974" 
d="M1901 717q0 -177 -39 -307.5t-110.5 -216.5t-186.5 -138t-254 -73.5t-325 -21.5q-175 0 -310.5 21t-252 73.5t-192.5 138t-118.5 217t-42.5 307.5q0 207 58 353t176.5 234.5t285 128.5t396.5 40q229 0 395.5 -40t285 -128.5t176.5 -234.5t58 -353zM1424 717
q0 118 -27.5 196.5t-86 122.5t-135.5 61.5t-189 17.5q-111 0 -188 -17.5t-135.5 -61.5t-87 -122.5t-28.5 -196.5t28.5 -196.5t87 -122.5t135.5 -61.5t188 -17.5q110 0 186.5 17.5t135.5 61.5t87.5 123t28.5 196z" />
    <glyph glyph-name="P" unicode="P" horiz-adv-x="1681" 
d="M1099 1434q109 0 208.5 -43t171.5 -115t114.5 -171.5t42.5 -208.5t-42.5 -208.5t-114.5 -171.5t-171.5 -115t-208.5 -43h-538v-358h-438v1434h976zM1019 717q74 0 126.5 52.5t52.5 126.5t-52.5 126.5t-126.5 52.5h-458v-358h458z" />
    <glyph glyph-name="Q" unicode="Q" horiz-adv-x="1980" 
d="M1901 717q0 -324 -128 -497l89 -88l-239 -238l-131 131q-188 -65 -506 -65q-175 0 -310.5 21t-252 73.5t-192.5 138t-118.5 217t-42.5 307.5q0 207 58 353t176.5 234.5t285 128.5t396.5 40q229 0 395.5 -40t285 -128.5t176.5 -234.5t58 -353zM986 319q117 0 193 19
l-119 120l239 239l113 -115q12 58 12 135q0 118 -27.5 196.5t-86 122.5t-135.5 61.5t-189 17.5q-111 0 -188 -17.5t-135.5 -61.5t-87 -122.5t-28.5 -196.5t28.5 -196.5t87 -122.5t135.5 -61.5t188 -17.5z" />
    <glyph glyph-name="R" unicode="R" horiz-adv-x="1832" 
d="M1278 0l-189 358h-528v-358h-438v1434h1095q109 0 208.5 -43t171.5 -115t115 -171.5t43 -208.5q0 -133 -61 -248t-166 -190l242 -458h-493zM561 1075v-358h577q74 0 127 52.5t53 126.5t-53 126.5t-127 52.5h-577z" />
    <glyph glyph-name="S" unicode="S" horiz-adv-x="1904" 
d="M957 896q99 -3 171 -7t153.5 -12t139 -19.5t118 -29t101.5 -41.5t79 -57.5t59.5 -75.5t34.5 -96t13 -120h-1q0 -84 -21 -151.5t-58.5 -117.5t-97 -86.5t-129 -60t-162.5 -37.5t-189.5 -19.5t-217.5 -5.5q-127 0 -225 5.5t-192 20.5t-162.5 40t-127 64.5t-94 93.5
t-55.5 127.5t-20 166.5h438q0 -24 4.5 -43.5t17 -34.5t24 -26.5t35.5 -20t41 -14.5t51.5 -10t56 -6t65 -3t68 -1h75.5q122 0 179 2t128 12.5t99 36t28 68.5q0 31 -12 53.5t-36.5 37t-54.5 23.5t-75 13.5t-88.5 6.5t-103.5 4q-15 0 -23 0.5t-21.5 1t-24.5 0.5h-1h-1
q-99 3 -170.5 7t-151.5 12t-136 18.5t-115 28t-98.5 40.5t-75.5 54.5t-57 72t-33 92t-12 113.5q0 93 25.5 165t78 122t122.5 83.5t170 52.5t209 27t250 8q126 0 223.5 -5.5t189.5 -20.5t158.5 -40t122.5 -64t90.5 -93.5t53 -128t18.5 -166.5h-438q0 24 -4 43.5t-15 34.5
t-21.5 26.5t-33 20t-38 14.5t-48 10t-53 6t-63 3t-67 1h-75.5h-7q-119 0 -173 -1.5t-119.5 -10.5t-90 -30t-24.5 -57q0 -32 15.5 -53t45 -33t70.5 -18.5t94.5 -9t115.5 -4.5q52 -1 79 -2h1h1z" />
    <glyph glyph-name="T" unicode="T" horiz-adv-x="1638" 
d="M1615 1434v-359h-577v-1075h-438v1075h-577v359h1592z" />
    <glyph glyph-name="U" unicode="U" horiz-adv-x="1865" 
d="M96 717v717h438v-717q0 -94 19 -164t52 -114t84.5 -71.5t109.5 -38t134 -10.5q75 0 133 10.5t109.5 38t84.5 71.5t52 114t19 164v717h438v-717q0 -175 -42 -307.5t-114 -217t-180 -137.5t-229 -74t-271 -21q-151 0 -272 21t-229 74t-180 137.5t-114 217t-42 307.5z" />
    <glyph glyph-name="V" unicode="V" horiz-adv-x="1828" 
d="M1352 1434h478l-717 -1434h-398l-717 1434h478l438 -876z" />
    <glyph glyph-name="W" unicode="W" horiz-adv-x="2490" 
d="M2001 1434h478l-478 -1434h-478l-278 836l-279 -836h-478l-478 1434h478l285 -855l285 855h374l285 -855z" />
    <glyph glyph-name="X" unicode="X" horiz-adv-x="1853" 
d="M1842 1434l-637 -717l637 -717h-557l-359 403l-358 -403h-558l637 717l-637 717h558l358 -404l359 404h557z" />
    <glyph glyph-name="Y" unicode="Y" horiz-adv-x="1732" 
d="M1742 1434l-657 -910v-524h-438v524l-657 910h517l359 -497l358 497h518z" />
    <glyph glyph-name="Z" unicode="Z" horiz-adv-x="1744" 
d="M76 1434h1593v-351l-906 -725h906v-358h-1593v350l906 725h-906v359z" />
    <glyph glyph-name="bracketleft" unicode="[" horiz-adv-x="770" 
d="M697 1262h-230v-1091h230v-344h-574v1779h574v-344z" />
    <glyph glyph-name="backslash" unicode="\" horiz-adv-x="1505" 
d="M451 1434l1019 -1435h-423l-1018 1435h422z" />
    <glyph glyph-name="bracketright" unicode="]" horiz-adv-x="770" 
d="M72 1605h574v-1779h-574v344h229v1091h-229v344z" />
    <glyph glyph-name="asciicircum" unicode="^" horiz-adv-x="1501" 
d="M967 1434l503 -718h-421l-294 420l-302 -420h-424l516 718h422z" />
    <glyph glyph-name="underscore" unicode="_" horiz-adv-x="1394" 
d="M1271 -346h-1148v344h1148v-344z" />
    <glyph glyph-name="grave" unicode="`" horiz-adv-x="581" 
d="M373 1431l172 -258h-229l-287 258h344z" />
    <glyph glyph-name="a" unicode="a" horiz-adv-x="1591" 
d="M778 1075q116 0 203 -5.5t165 -19.5t132 -38t97.5 -59.5t68.5 -86.5t38 -117t13 -152v-597h-398l-40 80q-92 -62 -194.5 -91t-243.5 -29q-91 0 -166 8t-150 31t-126.5 59.5t-83.5 98t-32 142.5q0 177 176.5 257.5t540.5 80.5q118 0 181 8.5t80.5 21t17.5 34.5
q0 39 -94.5 59.5t-220.5 16.5q-68 -2 -129 -7.5t-100.5 -10.5t-90 -17t-71.5 -18t-73.5 -21.5t-67.5 -20.5l-89 275q144 52 325.5 85t331.5 33zM499 319q0 -68 128 -84.5t266.5 39t163.5 164.5q-61 -8 -130.5 -13t-120 -7t-102.5 -5t-86.5 -8.5t-63 -15t-42 -27t-13.5 -43.5
z" />
    <glyph glyph-name="b" unicode="b" horiz-adv-x="1654" 
d="M947 1075q113 0 204.5 -15.5t174 -54.5t138 -101.5t88 -160t32.5 -225.5t-32.5 -226t-88 -160t-138 -101.5t-174 -55t-204.5 -15.5q-78 0 -148 12.5t-113.5 30t-76 35t-46.5 30.5l-14 12l-40 -80h-398v1434h438v-478q5 5 14.5 13t45 28.5t77.5 36t112.5 28.5t148.5 13z
M847 239q83 0 148.5 27t108 92t42.5 160q0 72 -24 127t-66 87t-94.5 48t-114.5 16t-114 -16t-94 -48t-66 -87t-24 -127t24 -127t66 -87.5t94 -48.5t114 -16z" />
    <glyph glyph-name="c" unicode="c" horiz-adv-x="1595" 
d="M804 239q117 0 187 38t96 121h445q-36 -228 -218 -333t-510 -105q-368 0 -552 133t-184 425t184 424.5t552 132.5q328 0 510 -105t218 -333h-445q-26 83 -96 121t-187 38q-152 0 -225 -65.5t-73 -212.5t73 -213t225 -66z" />
    <glyph glyph-name="d" unicode="d" horiz-adv-x="1654" 
d="M1105 1434h438v-1434h-398l-40 80q-5 -5 -14.5 -13t-45 -28.5t-77.5 -36.5t-112.5 -29t-148.5 -13q-113 0 -204.5 15.5t-174 55t-138 101.5t-88 160t-32.5 226t32.5 225.5t88 160t138 101.5t174 54.5t204.5 15.5q78 0 148 -12.5t113.5 -29.5t76 -34.5t46.5 -30.5l14 -12
v478zM806 239q83 0 148.5 27t108 92t42.5 160q0 72 -24 127t-66 87t-94.5 48t-114.5 16t-114 -16t-94 -48t-66 -87t-24 -127t24 -127t66 -87.5t94 -48.5t114 -16z" />
    <glyph glyph-name="e" unicode="e" horiz-adv-x="1601" 
d="M1537 448h-1026q16 -106 88 -157.5t207 -51.5q64 0 117.5 5.5t85.5 12.5t63 20.5t43 21t32.5 23t25.5 18.5l284 -165q-108 -117 -254.5 -166t-396.5 -49q-366 0 -552 137t-186 430q0 291 183 419.5t553 128.5t553.5 -128.5t183.5 -419.5q0 -29 -4 -79zM804 796
q-135 0 -198 -32.5t-87 -116.5h570q-24 84 -87 116.5t-198 32.5z" />
    <glyph glyph-name="f" unicode="f" horiz-adv-x="1114" 
d="M1200 1155q-149 22 -242.5 30.5t-158.5 6t-96.5 -23t-44.5 -50.5t-15 -83h437v-278h-438v-757h-438v757h-159v278h160q3 103 21.5 177t61.5 135.5t115 97t181.5 53t261.5 11t354 -35.5v-318z" />
    <glyph glyph-name="g" unicode="g" horiz-adv-x="1652" 
d="M1103 1035h438v-916q0 -224 -72.5 -361.5t-239.5 -206.5t-445 -69q-175 0 -304 28t-209.5 81t-124 121.5t-59.5 157.5l399 54q1 -2 5 -18t6.5 -22.5t10 -23t17 -25t24.5 -22t37 -21t49.5 -16t65.5 -12t83 -3.5q181 0 250 67t69 252v39q-5 -5 -14.5 -13t-45 -28.5
t-77.5 -36t-112.5 -28.5t-148.5 -13q-112 0 -204 15.5t-174.5 53.5t-138 98t-88 153t-32.5 214q0 123 32.5 218t88 155.5t138 98.5t174.5 53.5t204 15.5q78 0 148 -12.5t113.5 -29.5t76 -34.5t46.5 -30.5l14 -12v79zM804 279q299 0 299 255q0 72 -24 124.5t-66.5 81.5
t-94 42.5t-114.5 13.5t-114.5 -13.5t-94 -42.5t-66 -81.5t-23.5 -124.5q0 -255 298 -255z" />
    <glyph glyph-name="h" unicode="h" horiz-adv-x="1595" 
d="M927 1075q577 0 577 -557v-518h-438v518q0 147 -58.5 212.5t-180.5 65.5q-127 0 -202.5 -68t-75.5 -210v-518h-438v1434h438v-478q5 5 14.5 13t44 28.5t74.5 36t106 28.5t139 13z" />
    <glyph glyph-name="i" unicode="i" horiz-adv-x="659" 
d="M549 0h-438v1035h438v-1035zM549 1155h-438v279h438v-279z" />
    <glyph glyph-name="j" unicode="j" horiz-adv-x="659" 
d="M110 40v995h438v-955q0 -53 -2 -93t-11 -101t-25 -106t-47.5 -98t-74.5 -88.5t-109.5 -65t-149 -39t-197 -0.5t-249.5 41l39 318q94 -19 163.5 -23t110 10.5t65.5 30t35 50t12 55t2 60.5v9zM548 1155h-438v279h438v-279z" />
    <glyph glyph-name="k" unicode="k" horiz-adv-x="1398" 
d="M875 581l510 -581h-492l-285 328l-73 -69v-259h-424v1434h424v-688l315 289h492z" />
    <glyph glyph-name="l" unicode="l" horiz-adv-x="659" 
d="M549 0h-438v1434h438v-1434z" />
    <glyph glyph-name="m" unicode="m" horiz-adv-x="2476" 
d="M1863 1075q271 0 394 -129.5t123 -425.5v-518h-438v518q0 147 -59 213t-180 66t-179.5 -66t-58.5 -213v-520h-439v518q0 147 -58.5 212.5t-179.5 65.5q-122 0 -180.5 -65.5t-58.5 -212.5v-518h-438v1035h438v-79q6 5 16.5 13t48.5 28.5t81 36t111 28.5t141 13
q151 0 247.5 -39t150.5 -124q174 163 518 163z" />
    <glyph glyph-name="n" unicode="n" horiz-adv-x="1675" 
d="M987 1075q137 0 244.5 -31.5t187.5 -97t122.5 -174t42.5 -254.5v-518h-438v518q0 72 -24 127t-66 87t-94.5 48t-114.5 16t-114 -16t-94 -48t-66 -87t-24 -127v-518h-438v1035h438v-79q6 5 18.5 13t55 28.5t90 36t122 28.5t152.5 13z" />
    <glyph glyph-name="o" unicode="o" horiz-adv-x="1609" 
d="M804 1075q368 0 552.5 -132.5t184.5 -424.5t-184.5 -425t-552.5 -133t-552 133t-184 425t184 424.5t552 132.5zM804 239q152 0 225.5 66t73.5 213t-73.5 212.5t-225.5 65.5t-225 -65.5t-73 -212.5t73 -213t225 -66z" />
    <glyph glyph-name="p" unicode="p" horiz-adv-x="1654" 
d="M947 1075q113 0 204.5 -15.5t174 -54.5t138 -101.5t88 -160t32.5 -225.5t-32.5 -226t-88 -160t-138 -101.5t-174 -55t-204.5 -15.5q-78 0 -148 12.5t-113.5 30t-76 35t-46.5 30.5l-14 12v-558h-438v1513h438v-79q5 5 14.5 13t45 28.5t77.5 36t112.5 28.5t148.5 13z
M847 239q83 0 148.5 27t108 92t42.5 160q0 72 -24 127t-66 87t-94.5 48t-114.5 16t-114 -16t-94 -48t-66 -87t-24 -127t24 -127t66 -87.5t94 -48.5t114 -16z" />
    <glyph glyph-name="q" unicode="q" horiz-adv-x="1654" 
d="M1105 1035h438v-1513h-438v558q-5 -5 -14.5 -13t-45 -28.5t-77.5 -36.5t-112.5 -29t-148.5 -13q-113 0 -204.5 15.5t-174 55t-138 101.5t-88 160t-32.5 226t32.5 225.5t88 160t138 101.5t174 54.5t204.5 15.5q78 0 148 -12.5t113.5 -29.5t76 -34.5t46.5 -30.5l14 -12v79z
M806 239q83 0 148.5 27t108 92t42.5 160q0 72 -24 127t-66 87t-94.5 48t-114.5 16t-114 -16t-94 -48t-66 -87t-24 -127t24 -127t66 -87.5t94 -48.5t114 -16z" />
    <glyph glyph-name="r" unicode="r" horiz-adv-x="1265" 
d="M907 1075q86 0 177.5 -12.5t141.5 -27.5v-318q-12 3 -42 9.5t-41.5 8.5t-36.5 7t-42 6.5t-43 4t-53.5 3.5t-60.5 1q-54 0 -99 -6t-95 -26t-84.5 -53.5t-57 -93.5t-22.5 -140v-438h-438v1035h438v-79q3 5 10 13t36 28.5t65.5 36t102.5 28.5t144 13z" />
    <glyph glyph-name="s" unicode="s" horiz-adv-x="1546" 
d="M850 657q238 0 373.5 -35.5t190 -107t54.5 -195.5q0 -87 -19.5 -145t-64.5 -101.5t-127.5 -67t-198.5 -34.5t-287 -11q-172 0 -287.5 11t-198 34.5t-127.5 66.5t-64.5 101.5t-19.5 145.5h418q0 -30 12.5 -46.5t55 -23.5t81 -8.5t130.5 -1.5q169 0 223.5 11t54.5 61
q0 48 -64.5 58t-293.5 10q-179 0 -295 18.5t-183.5 61.5t-93.5 103.5t-26 154.5q0 76 17 129.5t61 99t120.5 72.5t195 42t284.5 15q167 0 285 -14t194.5 -40.5t120 -72t60.5 -99.5t17 -132h-399q0 29 -17.5 45.5t-62.5 23.5t-81 8.5t-111 1.5h-6q-171 0 -225 -10.5
t-54 -60.5q0 -47 66 -57.5t292 -10.5z" />
    <glyph glyph-name="t" unicode="t" horiz-adv-x="1107" 
d="M638 438q0 -87 24 -119t88.5 -32.5t176.5 17.5q70 10 110 15v-319q-174 -32 -309.5 -37t-223 6t-148 52.5t-91 76.5t-46 105t-17.5 111.5t-2 121.5v2v319h-159v278h159v319h438v-319h359v-278h-359v-319z" />
    <glyph glyph-name="u" unicode="u" horiz-adv-x="1675" 
d="M1125 1035h439v-1035h-399l-40 80q-6 -5 -18.5 -13t-55 -28.5t-90 -36.5t-122 -29t-152.5 -13q-137 0 -244.5 31.5t-187.5 97.5t-122.5 174.5t-42.5 254.5v517h438v-517q0 -95 42.5 -160t108 -92t148.5 -27q62 0 114 16t94 48.5t66 87.5t24 127v517z" />
    <glyph glyph-name="v" unicode="v" horiz-adv-x="1542" 
d="M1090 1035h438l-521 -1035h-472l-521 1035h438l319 -634z" />
    <glyph glyph-name="w" unicode="w" horiz-adv-x="2136" 
d="M1704 1035h410l-370 -1035h-438l-239 677l-239 -677h-438l-370 1035h410l219 -617l219 617h398l219 -617z" />
    <glyph glyph-name="x" unicode="x" horiz-adv-x="1474" 
d="M1454 1035l-478 -517l478 -518h-478l-239 259l-239 -259h-478l478 518l-478 517h478l239 -258l239 258h478z" />
    <glyph glyph-name="y" unicode="y" horiz-adv-x="1441" 
d="M1017 1035h411l-579 -1075q-106 -197 -119 -220q-85 -141 -174 -198q-135 -85 -381 -44q-54 9 -115 24v339q154 -32 190 -34q77 -5 125 42q30 31 63 92h1l76 141l-503 933h410l298 -552z" />
    <glyph glyph-name="z" unicode="z" horiz-adv-x="1509" 
d="M1430 1035v-278l-757 -478h757v-279h-1354v279l756 478h-756v278h1354z" />
    <glyph glyph-name="braceleft" unicode="{" horiz-adv-x="759" 
d="M542 1083v-92q0 -166 -84 -274q84 -108 84 -274v-92q0 -175 59 -254q33 -45 88 -45v-316q-103 0 -191.5 44.5t-150.5 127.5q-120 162 -120 443v92q0 59 -20 82q-29 34 -127 34v316q99 0 127 33q20 23 20 83v92q0 280 120 442q62 83 150.5 127.5t191.5 44.5v-315
q-55 0 -88 -45q-59 -79 -59 -254z" />
    <glyph glyph-name="verticalbar" unicode="|" horiz-adv-x="591" 
d="M467 -319h-344v1753h344v-1753z" />
    <glyph glyph-name="braceright" unicode="}" horiz-adv-x="759" 
d="M551 908q28 -33 128 -33v-316q-99 0 -128 -34q-19 -22 -19 -82v-92q0 -280 -121 -443q-129 -172 -341 -172v316q55 0 88 45q58 78 58 254v92q0 165 85 274q-85 109 -85 274v92q0 176 -58 254q-33 45 -88 45v315q212 0 341 -172q121 -163 121 -442v-92q0 -61 19 -83z" />
    <glyph glyph-name="asciitilde" unicode="~" horiz-adv-x="1476" 
d="M1182 925l244 -243q-90 -90 -193 -135q-96 -42 -204 -47h-10h-11.5h-9.5q-115 0 -309 50q-87 22 -131.5 30.5t-97.5 8.5t-91.5 -19t-77.5 -58l-244 243q87 87 191 133q93 40 200 45q126 5 337 -49q70 -18 108.5 -26t86.5 -13t79 2.5t65.5 26t67.5 51.5z" />
    <glyph glyph-name="nonbreakingspace" unicode="&#xa0;" horiz-adv-x="942" 
 />
    <glyph glyph-name="exclamdown" unicode="&#xa1;" horiz-adv-x="630" 
d="M534 -320h-438v861h438v-861zM534 771h-438v344h438v-344z" />
    <glyph glyph-name="cent" unicode="&#xa2;" horiz-adv-x="1470" 
d="M739 438q274 0 327 181h326q-11 -81 -37 -145q-48 -117 -140 -193q-88 -73 -215 -108q-58 -15 -96 -21v-152h-344v155q-42 7 -82 18q-128 35 -216 108q-91 75 -139 193q-43 109 -43 241q0 131 43 240q48 118 139 193q90 74 216 109q40 11 82 18v159h344v-157
q47 -7 96 -20q125 -34 215 -109q92 -76 140 -193q26 -64 37 -145h-325q-52 181 -328 181q-340 0 -340 -276q0 -277 340 -277z" />
    <glyph glyph-name="sterling" unicode="&#xa3;" horiz-adv-x="1828" 
d="M638 588q11 -142 -3 -240h1074v-349h-1375l-187 323q45 79 57 139.5t4 126.5h-128v244h96q0 314 204 483q104 86 260 127q145 37 326 37q156 0 284 -33q143 -36 247 -111q116 -82 179 -208q62 -124 62 -275h-430q0 58 -14 95t-47 69q-48 46 -110 61.5t-174 15.5
q-139 0 -207 -21t-102 -57q-21 -23 -30.5 -38.5t-16 -52.5t-1.5 -92h536v-244h-504z" />
    <glyph glyph-name="currency" unicode="&#xa4;" horiz-adv-x="1105" 
d="M910 565q-3 -10 -7 -16l128 -129l-183 -182l-128 128q-2 -1 -8 -3.5t-8 -3.5q-74 -31 -151 -31t-151 31q-3 1 -17 8l-129 -129l-182 182l129 129l1 -1q-5 9 -8 17q-30 72 -30 151t30 151q2 3 4.5 9t3.5 9l-1 -2l-129 129l182 183l129 -129l-1 -2l18 9q72 30 151 30
t151 -30q3 -1 8 -3.5l7 -3.5l129 129l183 -183l-129 -128q7 -14 8 -17q30 -72 30 -151t-30 -151zM553 587q53 0 91 38t38 91t-38 91t-91 38t-91 -38t-38 -91t38 -91t91 -38z" />
    <glyph glyph-name="yen" unicode="&#xa5;" horiz-adv-x="1822" 
d="M1792 1434l-596 -832h295v-143h-365v-115h365v-144h-365v-201h-431v201h-352v144h352v115h-352v143h282l-596 832h529l352 -491l352 491h530z" />
    <glyph glyph-name="section" unicode="&#xa7;" horiz-adv-x="1619" 
d="M1513 964h-370v37q0 64 -81.5 94t-251.5 30q-180 0 -256.5 -24t-76.5 -87q0 -28 16 -45t51.5 -25.5t81 -12.5t116.5 -7q44 -2 68 -3q119 -3 199 -9t162 -20.5t136 -39t99.5 -65t74.5 -98.5q32 -64 32 -155q0 -94 -30 -164q-13 -32 -33 -60q10 -14 31 -53q32 -64 32 -155
q0 -94 -30 -164q-42 -101 -143 -161q-160 -96 -530 -96q-352 0 -506 84q-85 46 -141.5 129t-56.5 207v37h371v-37q0 -64 81.5 -94t251.5 -30q180 0 256 24.5t76 87.5q0 51 -60 68q-43 13 -200 20l-72 4q-119 3 -199.5 9t-162.5 20.5t-136 39t-99.5 65t-74.5 98.5
q-32 64 -32 156q0 93 30 163q13 30 34 61q-16 21 -32 52q-31 62 -31 155q0 96 29 164q42 101 143 161q160 96 531 96q353 0 505 -83q85 -46 141.5 -129.5t56.5 -207.5v-37zM494 634q-17 -20 -17 -52q0 -28 16 -45t51.5 -25.5t81 -12.5t116.5 -7q15 0 23 -0.5t21 -1t24 -1.5
q206 -5 315 -21q17 20 17 52q0 28 -15.5 45t-51 25.5t-81 12.5t-116.5 7q-44 2 -68 3q-207 5 -316 21z" />
    <glyph glyph-name="dieresis" unicode="&#xa8;" horiz-adv-x="731" 
d="M279 1200h-230v230h230v-230zM680 1200h-229v230h229v-230z" />
    <glyph glyph-name="copyright" unicode="&#xa9;" horiz-adv-x="862" 
d="M432 1154q-97 0 -97 -78q0 -79 97 -79q77 0 93 51h93q-3 -23 -10 -41q-13 -33 -40 -55q-24 -20 -62 -31q-33 -9 -74 -9t-74 9q-38 11 -62 31q-27 22 -40 55q-12 30 -12 69q0 38 12 68q13 33 40 55q24 20 62 31q33 9 74 9t74 -9q38 -11 62 -31q27 -22 40 -55q7 -18 10 -41
h-93q-15 51 -93 51zM761 1215q28 -65 28 -139q0 -75 -28 -140q-27 -64 -77 -114t-114 -77q-65 -28 -140 -28q-74 0 -139 28q-64 27 -114 77t-77 114q-28 65 -28 140q0 74 28 139q27 64 77 114t114 77q65 28 139 28q75 0 140 -28q64 -27 114 -77t77 -114zM430 803
q112 0 192.5 80.5t80.5 192.5t-80 192t-193 80q-112 0 -192 -80t-80 -192q0 -113 80 -193t192 -80z" />
    <glyph glyph-name="guillemotleft" unicode="&#xab;" horiz-adv-x="1206" 
d="M1092 1469v-502l-236 -250l236 -251v-501l-473 501v502zM88 466v502l474 501v-502l-237 -250l237 -251v-501z" />
    <glyph glyph-name="softhyphen" unicode="&#xad;" horiz-adv-x="0" 
 />
    <glyph glyph-name="registered" unicode="&#xae;" horiz-adv-x="862" 
d="M595 1075q-9 -20 -24 -35q-7 -7 -16 -13l48 -99h-101l-39 79h-100v-79h-90v303h219q22 0 43 -9q22 -10 36 -24t24 -36q8 -19 8 -43q0 -25 -8 -44zM473 1080q17 0 28 11t11 28t-11 28t-28 11h-110v-78h110zM761 1215q28 -65 28 -139q0 -75 -28 -140q-27 -64 -77 -114
t-114 -77q-65 -28 -140 -28q-74 0 -139 28q-64 27 -114 77t-77 114q-28 65 -28 140q0 74 28 139q27 64 77 114t114 77q65 28 139 28q75 0 140 -28q64 -27 114 -77t77 -114zM430 803q112 0 192.5 80.5t80.5 192.5t-80 192t-193 80q-112 0 -192 -80t-80 -192q0 -113 80 -193
t192 -80z" />
    <glyph glyph-name="degree" unicode="&#xb0;" horiz-adv-x="651" 
d="M325 1553q109 0 187 -77.5t78 -187.5t-78 -188t-187 -78t-187.5 78t-78.5 188q0 109 78 187t188 78zM325 1209q33 0 56 23t23 56t-23 56t-56 23t-56 -23t-23 -56t23 -56t56 -23z" />
    <glyph glyph-name="plusminus" unicode="&#xb1;" horiz-adv-x="1196" 
d="M1095 -2h-1007v302h1007v-302zM755 1083h352v-302h-352v-352h-302v352h-352v302h352v352h302v-352z" />
    <glyph glyph-name="acute" unicode="&#xb4;" horiz-adv-x="581" 
d="M207 1431h344l-287 -258h-229z" />
    <glyph glyph-name="paragraph" unicode="&#xb6;" horiz-adv-x="1556" 
d="M498 1434h976v-344h-144v-1409h-344v1409h-144v-1409h-344v892q-178 0 -304 126t-126 305q0 178 126 304t304 126z" />
    <glyph glyph-name="cedilla" unicode="&#xb8;" horiz-adv-x="532" 
d="M123 0h286v-172l-143 -229h-100l71 229h-114v172z" />
    <glyph glyph-name="guillemotright" unicode="&#xbb;" horiz-adv-x="1206" 
d="M113 972v501l473 -501v-501l-473 -502v502l236 250zM643 1473l474 -501v-501l-474 -502v502l237 250l-237 251v501z" />
    <glyph glyph-name="questiondown" unicode="&#xbf;" horiz-adv-x="1732" 
d="M1075 796h-438v319h438v-319zM1257 159h438q0 -93 -18.5 -166.5t-52 -127.5t-88 -93.5t-118.5 -64t-151.5 -39.5t-179 -20.5t-209.5 -5.5q-120 0 -214 5.5t-181.5 19t-152 36.5t-117.5 58t-86 83t-50.5 111.5t-17.5 144.5q0 73 6.5 123t30 91t47.5 65.5t81.5 51.5
t108 44.5t149.5 47.5q11 3 34.5 10t30.5 9.5t24 8t20.5 9t14.5 10t13 13t8 16t6.5 21t2 25.5t1.5 32h441q0 -64 -1.5 -96t-9.5 -79.5t-26 -73t-50 -60t-81.5 -57t-121.5 -48t-169 -48.5q-42 -10 -66.5 -21t-35.5 -26.5t-13.5 -29t-2.5 -38.5q0 -69 78.5 -84.5t298.5 -15.5
h69.5t61.5 1t57.5 3t48 6t43.5 10t34 14.5t29 20t19 27t13.5 34.5t3.5 43z" />
    <glyph glyph-name="Agrave" unicode="&#xc0;" 
d="M1069 1548h-229l-287 258h344zM1180 1434l703 -1434h-478l-78 159h-771l-79 -159h-479l703 1434h479zM729 518h419l-209 427z" />
    <glyph glyph-name="Aacute" unicode="&#xc1;" 
d="M1327 1808l-287 -258h-230l172 258h345zM1180 1434l703 -1434h-478l-78 159h-771l-79 -159h-479l703 1434h479zM729 518h419l-209 427z" />
    <glyph glyph-name="Acircumflex" unicode="&#xc2;" 
d="M825 1549h-284h-1l258 254h286l257 -254h-1h-284l-115 113zM1180 1434l703 -1434h-478l-78 159h-771l-79 -159h-479l703 1434h479zM729 518h419l-209 427z" />
    <glyph glyph-name="Atilde" unicode="&#xc3;" 
d="M913 1581q-83 25 -137.5 23t-98.5 -46l-143 144q53 53 112 78q55 24 119 27q70 3 198 -29q83 -26 139.5 -23.5t101.5 47.5l144 -144q-52 -52 -114 -79q-58 -25 -120 -28h-19q-64 0 -182 30zM1180 1434l703 -1434h-478l-78 159h-771l-79 -159h-479l703 1434h479zM729 518
h419l-209 427z" />
    <glyph glyph-name="Adieresis" unicode="&#xc4;" 
d="M859 1563h-230v230h230v-230zM1260 1563h-229v230h229v-230zM1180 1434l703 -1434h-478l-78 159h-771l-79 -159h-479l703 1434h479zM729 518h419l-209 427z" />
    <glyph glyph-name="Aring" unicode="&#xc5;" 
d="M940 1531q-89 0 -152 63t-63 152t63 152t152 63t152 -63t63 -152t-63 -152t-152 -63zM940 1818q-30 0 -50.5 -21t-20.5 -51t20.5 -50.5t50.5 -20.5t51 20.5t21 50.5t-21 51t-51 21zM1180 1434l703 -1434h-478l-78 159h-771l-79 -159h-479l703 1434h479zM729 518h419
l-209 427z" />
    <glyph glyph-name="AE" unicode="&#xc6;" horiz-adv-x="2228" 
d="M2133 1075h-756v-179h676v-358h-676v-180h756v-358h-1194v159h-381l-78 -159h-480l703 1434h1430v-359zM939 518v422l-208 -422h208z" />
    <glyph glyph-name="Ccedilla" unicode="&#xc7;" horiz-adv-x="1957" 
d="M831 -286v172h287v-172l-143 -229h-101l72 229h-115zM1406 558h487q-16 -139 -64.5 -241.5t-123 -170.5t-184 -109.5t-238.5 -59t-297 -17.5q-175 0 -310.5 21t-252 73.5t-192.5 138t-118.5 217t-42.5 307.5q0 207 58 353t176.5 234.5t285 128.5t396.5 40
q206 0 360.5 -32t271 -102t184.5 -185.5t90 -277.5h-486q-34 134 -136 186.5t-284 52.5q-111 0 -188 -17.5t-135.5 -61.5t-87 -122.5t-28.5 -196.5t28.5 -196.5t87 -122.5t135.5 -61.5t188 -17.5q179 0 282 53t138 186z" />
    <glyph glyph-name="Egrave" unicode="&#xc8;" horiz-adv-x="1691" 
d="M992 1549h-230l-287 259h344zM1596 1075h-1035v-179h956v-358h-956v-180h1035v-358h-1473v1434h1473v-359z" />
    <glyph glyph-name="Eacute" unicode="&#xc9;" horiz-adv-x="1691" 
d="M1248 1808l-287 -259h-230l173 259h344zM1596 1075h-1035v-179h956v-358h-956v-180h1035v-358h-1473v1434h1473v-359z" />
    <glyph glyph-name="Ecircumflex" unicode="&#xca;" horiz-adv-x="1691" 
d="M748 1549h-284l-1 1l258 254h286l257 -254l-1 -1h-284l-115 114zM1596 1075h-1035v-179h956v-358h-956v-180h1035v-358h-1473v1434h1473v-359z" />
    <glyph glyph-name="Edieresis" unicode="&#xcb;" horiz-adv-x="1691" 
d="M777 1562h-230v229h230v-229zM1178 1562h-229v229h229v-229zM1596 1075h-1035v-179h956v-358h-956v-180h1035v-358h-1473v1434h1473v-359z" />
    <glyph glyph-name="Igrave" unicode="&#xcc;" horiz-adv-x="684" 
d="M473 1545h-229l-287 259h344zM561 0h-438v1434h438v-1434z" />
    <glyph glyph-name="Iacute" unicode="&#xcd;" horiz-adv-x="686" 
d="M705 1804l-287 -259h-229l172 259h344zM561 0h-438v1434h438v-1434z" />
    <glyph glyph-name="Icircumflex" unicode="&#xce;" horiz-adv-x="684" 
d="M488 1804l257 -254l-1 -1h-284l-115 114l-115 -114h-284l-1 1l257 254h286zM560 0h-438v1434h438v-1434z" />
    <glyph glyph-name="Idieresis" unicode="&#xcf;" horiz-adv-x="686" 
d="M256 1545h-229v230h229v-230zM658 1545h-230v230h230v-230zM561 0h-438v1434h438v-1434z" />
    <glyph glyph-name="Eth" unicode="&#xd0;" horiz-adv-x="1964" 
d="M1021 1434q219 0 378 -38t272.5 -122t169 -222.5t55.5 -334.5q0 -168 -37 -291.5t-106 -205t-179 -131t-242.5 -69.5t-310.5 -20h-836v558h-119v358h119v518h836zM1021 358q86 0 148.5 8t120 31.5t93 62.5t56 103.5t20.5 153.5t-20.5 153t-55.5 103.5t-92 62.5t-120 31
t-150 8h-398v-159h358v-358h-358v-200h398z" />
    <glyph glyph-name="Ntilde" unicode="&#xd1;" horiz-adv-x="1959" 
d="M960 1580q-83 25 -137.5 23.5t-98.5 -45.5l-143 143q55 55 112 79q53 23 119 26q70 3 198 -29q84 -26 140 -23t101 48l144 -144q-53 -53 -114 -80q-55 -24 -121 -27q-3 0 -9 -0.5t-9 -0.5q-64 0 -182 30zM1397 1434h438v-1434h-517l-757 851v-851h-438v1434h478l796 -896
v896z" />
    <glyph glyph-name="Ograve" unicode="&#xd2;" horiz-adv-x="1974" 
d="M1116 1589h-230l-287 258h344zM986 1473q229 0 395.5 -40t285 -128.5t176.5 -234.5t58 -353q0 -177 -39 -307.5t-110.5 -216.5t-186.5 -138t-254 -73.5t-325 -21.5q-175 0 -310.5 21t-252 73.5t-192.5 138t-118.5 217t-42.5 307.5q0 207 58 353t176.5 234.5t285 128.5
t396.5 40zM986 319q110 0 186.5 17.5t135.5 61.5t87.5 123t28.5 196q0 118 -27.5 196.5t-86 122.5t-135.5 61.5t-189 17.5q-111 0 -188 -17.5t-135.5 -61.5t-87 -122.5t-28.5 -196.5t28.5 -196.5t87 -122.5t135.5 -61.5t188 -17.5z" />
    <glyph glyph-name="Oacute" unicode="&#xd3;" horiz-adv-x="1974" 
d="M1371 1847l-286 -258h-230l172 258h344zM986 1473q229 0 395.5 -40t285 -128.5t176.5 -234.5t58 -353q0 -177 -39 -307.5t-110.5 -216.5t-186.5 -138t-254 -73.5t-325 -21.5q-175 0 -310.5 21t-252 73.5t-192.5 138t-118.5 217t-42.5 307.5q0 207 58 353t176.5 234.5
t285 128.5t396.5 40zM986 319q110 0 186.5 17.5t135.5 61.5t87.5 123t28.5 196q0 118 -27.5 196.5t-86 122.5t-135.5 61.5t-189 17.5q-111 0 -187.5 -17.5t-135.5 -61.5t-87 -122.5t-28 -196.5t28 -196.5t87 -122.5t135.5 -61.5t187.5 -17.5z" />
    <glyph glyph-name="Ocircumflex" unicode="&#xd4;" horiz-adv-x="1974" 
d="M871 1592h-284l-1 1l257 254h286l257 -254l-1 -1h-284l-115 114zM986 1473q229 0 395.5 -40t285 -128.5t176.5 -234.5t58 -353q0 -177 -39 -307.5t-110.5 -216.5t-186.5 -138t-254 -73.5t-325 -21.5q-175 0 -310.5 21t-252 73.5t-192.5 138t-118.5 217t-42.5 307.5
q0 207 58 353t176.5 234.5t285 128.5t396.5 40zM986 319q110 0 186.5 17.5t135.5 61.5t87.5 123t28.5 196q0 118 -27.5 196.5t-86 122.5t-135.5 61.5t-189 17.5q-111 0 -188 -17.5t-135.5 -61.5t-87 -122.5t-28.5 -196.5t28.5 -196.5t87 -122.5t135.5 -61.5t188 -17.5z" />
    <glyph glyph-name="Otilde" unicode="&#xd5;" horiz-adv-x="1974" 
d="M957 1621q-83 25 -137 23t-98 -46l-144 144q53 53 112 78q55 24 119 27q70 3 198 -29q83 -26 139.5 -23.5t101.5 47.5l144 -144q-52 -52 -114 -79q-58 -25 -120 -28h-19q-64 0 -182 30zM986 1473q229 0 395.5 -40t285 -128.5t176.5 -234.5t58 -353q0 -177 -39 -307.5
t-110.5 -216.5t-186.5 -138t-254 -73.5t-325 -21.5q-175 0 -310.5 21t-252 73.5t-192.5 138t-118.5 217t-42.5 307.5q0 207 58 353t176.5 234.5t285 128.5t396.5 40zM986 319q110 0 186.5 17.5t135.5 61.5t87.5 123t28.5 196q0 118 -27.5 196.5t-86 122.5t-135.5 61.5
t-189 17.5q-111 0 -188 -17.5t-135.5 -61.5t-87 -122.5t-28.5 -196.5t28.5 -196.5t87 -122.5t135.5 -61.5t188 -17.5z" />
    <glyph glyph-name="Odieresis" unicode="&#xd6;" horiz-adv-x="1974" 
d="M899 1601h-229v229h229v-229zM1301 1601h-229v229h229v-229zM986 1473q229 0 395.5 -40t285 -128.5t176.5 -234.5t58 -353q0 -177 -39 -307.5t-110.5 -216.5t-186.5 -138t-254 -73.5t-325 -21.5q-175 0 -310.5 21t-252 73.5t-192.5 138t-118.5 217t-42.5 307.5
q0 207 58 353t176.5 234.5t285 128.5t396.5 40zM986 319q110 0 186.5 17.5t135.5 61.5t87.5 123t28.5 196q0 118 -27.5 196.5t-86 122.5t-135.5 61.5t-189 17.5q-111 0 -188 -17.5t-135.5 -61.5t-87 -122.5t-28.5 -196.5t28.5 -196.5t87 -122.5t135.5 -61.5t188 -17.5z" />
    <glyph glyph-name="multiply" unicode="&#xd7;" horiz-adv-x="1200" 
d="M1127 1001l-284 -284l284 -284l-244 -244l-284 284l-284 -284l-243 244l284 284l-284 284l243 243l284 -284l284 284z" />
    <glyph glyph-name="Oslash" unicode="&#xd8;" horiz-adv-x="2011" 
d="M1937 1227l-111 -84q94 -167 94 -426q0 -177 -39 -307.5t-110.5 -216.5t-186.5 -138t-254 -73.5t-325 -21.5q-383 0 -590 107l-150 -114l-193 253l109 84q-92 166 -92 427q0 207 58 353t176.5 234.5t285 128.5t396.5 40q375 0 587 -109l152 117zM566 717q0 -68 11 -126
l652 497q-84 27 -224 27q-111 0 -188 -17.5t-135.5 -61.5t-87 -122.5t-28.5 -196.5zM1005 319q110 0 186.5 17.5t135.5 61.5t87.5 123t28.5 196q0 68 -11 126l-651 -497q84 -27 224 -27z" />
    <glyph glyph-name="Ugrave" unicode="&#xd9;" horiz-adv-x="1865" 
d="M1063 1550h-229l-287 258h344zM1331 1434h438v-717q0 -175 -42 -307.5t-114 -217t-180 -137.5t-229 -74t-271 -21q-151 0 -272 21t-229 74t-180 137.5t-114 217t-42 307.5v717h438v-717q0 -94 19 -164t52 -114t84.5 -71.5t109.5 -38t134 -10.5q75 0 133 10.5t109.5 38
t84.5 71.5t52 114t19 164v717z" />
    <glyph glyph-name="Uacute" unicode="&#xda;" horiz-adv-x="1865" 
d="M1323 1809l-287 -258h-230l172 258h345zM1331 1434h438v-717q0 -175 -42 -307.5t-114 -217t-180 -137.5t-229 -74t-271 -21q-151 0 -272 21t-229 74t-180 137.5t-114 217t-42 307.5v717h438v-717q0 -94 19 -164t52 -114t84.5 -71.5t109.5 -38t134 -10.5q75 0 133 10.5
t109.5 38t84.5 71.5t52 114t19 164v717z" />
    <glyph glyph-name="Ucircumflex" unicode="&#xdb;" horiz-adv-x="1865" 
d="M817 1549h-284l-1 1l258 254h286l257 -254l-1 -1h-284l-115 114zM1331 1434h438v-717q0 -175 -42 -307.5t-114 -217t-180 -137.5t-229 -74t-271 -21q-151 0 -272 21t-229 74t-180 137.5t-114 217t-42 307.5v717h438v-717q0 -94 19 -164t52 -114t84.5 -71.5t109.5 -38
t134 -10.5q75 0 133 10.5t109.5 38t84.5 71.5t52 114t19 164v717z" />
    <glyph glyph-name="Udieresis" unicode="&#xdc;" horiz-adv-x="1865" 
d="M848 1565h-230v230h230v-230zM1249 1565h-229v230h229v-230zM1331 1434h438v-717q0 -175 -42 -307.5t-114 -217t-180 -137.5t-229 -74t-271 -21q-151 0 -272 21t-229 74t-180 137.5t-114 217t-42 307.5v717h438v-717q0 -94 19 -164t52 -114t84.5 -71.5t109.5 -38
t134 -10.5q75 0 133 10.5t109.5 38t84.5 71.5t52 114t19 164v717z" />
    <glyph glyph-name="Yacute" unicode="&#xdd;" horiz-adv-x="1732" 
d="M1249 1808l-287 -259h-229l172 259h344zM1224 1434h518l-657 -910v-524h-438v524l-657 910h517l359 -497z" />
    <glyph glyph-name="Thorn" unicode="&#xde;" horiz-adv-x="1605" 
d="M1516 922q42 -98 42 -206q0 -110 -42 -207q-40 -95 -114 -168q-72 -72 -168 -113q-98 -42 -206 -42h-475v-187h-430v1435h430v-189h475q111 0 206 -41q94 -40 168 -114t114 -168zM941 530q76 0 130.5 54.5t54.5 131.5q0 76 -54 130.5t-131 54.5h-388v-371h388z" />
    <glyph glyph-name="germandbls" unicode="&#xdf;" horiz-adv-x="1316" 
d="M1245 461q32 -93 16 -189t-76 -172q-116 -148 -313 -153h-9q-100 0 -193.5 40t-151.5 108l218 187q15 -18 52 -33.5t78 -14.5q59 1 93 43q32 40 15 91q-19 54 -80 69q-114 29 -185 76q-87 57 -125 142q-37 81 -23 174q11 76 54 158q59 112 23 171q-15 24 -42.5 36.5
t-54.5 12.5t-41.5 -2.5t-37 -23t-34 -60t-21 -119.5t-9.5 -196v-804h-287v804q0 154 13 255q16 122 58 213q104 220 359 220q102 0 190 -46q95 -49 152 -142q20 -33 33.5 -72t20.5 -96.5t-10 -131.5t-58 -152q-33 -63 -23 -82q3 -7 14 -15.5t38 -20.5t65 -21
q103 -25 179 -95q70 -64 103 -159z" />
    <glyph glyph-name="agrave" unicode="&#xe0;" horiz-adv-x="1591" 
d="M907 1199h-229l-287 258h344zM778 1075q116 0 203 -5.5t165 -19.5t132 -38t97.5 -59.5t68.5 -86.5t38 -117t13 -152v-597h-398l-40 80q-92 -62 -194.5 -91t-243.5 -29q-91 0 -166 8t-150 31t-126.5 59.5t-83.5 98t-32 142.5q0 177 176.5 257.5t540.5 80.5q118 0 181 8.5
t80.5 21t17.5 34.5q0 39 -94.5 59.5t-220.5 16.5q-68 -2 -129 -7.5t-100.5 -10.5t-90 -17t-71.5 -18t-73.5 -21.5t-67.5 -20.5l-89 275q144 52 325.5 85t331.5 33zM499 319q0 -68 128 -84.5t266.5 39t163.5 164.5q-61 -8 -130.5 -13t-120 -7t-102.5 -5t-86.5 -8.5t-63 -15
t-42 -27t-13.5 -43.5z" />
    <glyph glyph-name="aacute" unicode="&#xe1;" horiz-adv-x="1591" 
d="M1164 1459l-287 -258h-229l172 258h344zM778 1075q116 0 203 -5.5t165 -19.5t132 -38t97.5 -59.5t68.5 -86.5t38 -117t13 -152v-597h-398l-40 80q-92 -62 -194.5 -91t-243.5 -29q-91 0 -166 8t-150 31t-126.5 59.5t-83.5 98t-32 142.5q0 177 176.5 257.5t540.5 80.5
q118 0 181 8.5t80.5 21t17.5 34.5q0 39 -94.5 59.5t-220.5 16.5q-68 -2 -129 -7.5t-100.5 -10.5t-90 -17t-71.5 -18t-73.5 -21.5t-67.5 -20.5l-89 275q144 52 325.5 85t331.5 33zM499 319q0 -68 128 -84.5t266.5 39t163.5 164.5q-61 -8 -130.5 -13t-120 -7t-102.5 -5
t-86.5 -8.5t-63 -15t-42 -27t-13.5 -43.5z" />
    <glyph glyph-name="acircumflex" unicode="&#xe2;" horiz-adv-x="1591" 
d="M663 1199h-284l-1 1l257 254h286l257 -254v-1h-284l-116 114zM778 1075q116 0 203 -5.5t165 -19.5t132 -38t97.5 -59.5t68.5 -86.5t38 -117t13 -152v-597h-398l-40 80q-92 -62 -194.5 -91t-243.5 -29q-91 0 -166 8t-150 31t-126.5 59.5t-83.5 98t-32 142.5
q0 177 176.5 257.5t540.5 80.5q118 0 181 8.5t80.5 21t17.5 34.5q0 39 -94.5 59.5t-220.5 16.5q-68 -2 -129 -7.5t-100.5 -10.5t-90 -17t-71.5 -18t-73.5 -21.5t-67.5 -20.5l-89 275q144 52 325.5 85t331.5 33zM499 319q0 -68 128 -84.5t266.5 39t163.5 164.5
q-61 -8 -130.5 -13t-120 -7t-102.5 -5t-86.5 -8.5t-63 -15t-42 -27t-13.5 -43.5z" />
    <glyph glyph-name="atilde" unicode="&#xe3;" horiz-adv-x="1591" 
d="M752 1232q-83 25 -137.5 23t-98.5 -46l-143 144q53 53 112 78q55 24 119 27q70 3 198 -29q83 -26 139.5 -23.5t101.5 47.5l143 -144q-52 -52 -114 -79q-58 -25 -120 -28h-18q-64 0 -182 30zM778 1075q116 0 203 -5.5t165 -19.5t132 -38t97.5 -59.5t68.5 -86.5t38 -117
t13 -152v-597h-398l-40 80q-92 -62 -194.5 -91t-243.5 -29q-91 0 -166 8t-150 31t-126.5 59.5t-83.5 98t-32 142.5q0 177 176.5 257.5t540.5 80.5q118 0 181 8.5t80.5 21t17.5 34.5q0 39 -94.5 59.5t-220.5 16.5q-68 -2 -129 -7.5t-100.5 -10.5t-90 -17t-71.5 -18
t-73.5 -21.5t-67.5 -20.5l-89 275q144 52 325.5 85t331.5 33zM499 319q0 -68 128 -84.5t266.5 39t163.5 164.5q-61 -8 -130.5 -13t-120 -7t-102.5 -5t-86.5 -8.5t-63 -15t-42 -27t-13.5 -43.5z" />
    <glyph glyph-name="adieresis" unicode="&#xe4;" horiz-adv-x="1591" 
d="M696 1214h-229v230h229v-230zM1098 1214h-229v230h229v-230zM778 1075q116 0 203 -5.5t165 -19.5t132 -38t97.5 -59.5t68.5 -86.5t38 -117t13 -152v-597h-398l-40 80q-92 -62 -194.5 -91t-243.5 -29q-91 0 -166 8t-150 31t-126.5 59.5t-83.5 98t-32 142.5
q0 177 176.5 257.5t540.5 80.5q118 0 181 8.5t80.5 21t17.5 34.5q0 39 -94.5 59.5t-220.5 16.5q-68 -2 -129 -7.5t-100.5 -10.5t-90 -17t-71.5 -18t-73.5 -21.5t-67.5 -20.5l-89 275q144 52 325.5 85t331.5 33zM499 319q0 -68 128 -84.5t266.5 39t163.5 164.5
q-61 -8 -130.5 -13t-120 -7t-102.5 -5t-86.5 -8.5t-63 -15t-42 -27t-13.5 -43.5z" />
    <glyph glyph-name="aring" unicode="&#xe5;" horiz-adv-x="1591" 
d="M778 1187q-89 0 -152 63t-63 152t63 152t152 63t152 -63t63 -152t-63 -152t-152 -63zM778 1473q-30 0 -51 -20.5t-21 -50.5t21 -51t51 -21t50.5 21t20.5 51t-20.5 50.5t-50.5 20.5zM778 1075q116 0 203 -5.5t165 -19.5t132 -38t97.5 -59.5t68.5 -86.5t38 -117t13 -152
v-597h-398l-40 80q-92 -62 -194.5 -91t-243.5 -29q-91 0 -166 8t-150 31t-126.5 59.5t-83.5 98t-32 142.5q0 177 176.5 257.5t540.5 80.5q118 0 181 8.5t80.5 21t17.5 34.5q0 39 -94.5 59.5t-220.5 16.5q-68 -2 -129 -7.5t-100.5 -10.5t-90 -17t-71.5 -18t-73.5 -21.5
t-67.5 -20.5l-89 275q144 52 325.5 85t331.5 33zM499 319q0 -68 128 -84.5t266.5 39t163.5 164.5q-61 -8 -130.5 -13t-120 -7t-102.5 -5t-86.5 -8.5t-63 -15t-42 -27t-13.5 -43.5z" />
    <glyph glyph-name="ae" unicode="&#xe6;" horiz-adv-x="2590" 
d="M2527 448h-1027q16 -106 88 -157.5t207 -51.5q64 0 117.5 5.5t85.5 12.5t63 20.5t43 21t32.5 23t25.5 18.5l284 -165q-108 -117 -254.5 -166t-396.5 -49q-200 0 -345 40h-353l-40 80q-92 -62 -194.5 -91t-243.5 -29q-91 0 -166 8t-150 31t-126.5 59.5t-83.5 98t-32 142.5
q0 177 176.5 257.5t540.5 80.5q118 0 181 8.5t80.5 21t17.5 34.5q0 39 -94.5 59.5t-220.5 16.5q-68 -2 -129 -7.5t-100.5 -10.5t-90 -17t-71.5 -18t-73.5 -21.5t-67.5 -20.5l-89 275q144 52 325.5 85t331.5 33q199 0 329 -18t212 -64q173 82 475 82q370 0 553 -128.5
t183 -419.5q0 -41 -3 -79zM499 319q0 -68 128 -84.5t266.5 39t163.5 164.5q-61 -8 -130.5 -13t-120 -7t-102.5 -5t-86.5 -8.5t-63 -15t-42 -27t-13.5 -43.5zM1794 796q-135 0 -198 -32.5t-87 -116.5h570q-24 84 -87 116.5t-198 32.5z" />
    <glyph glyph-name="ccedilla" unicode="&#xe7;" horiz-adv-x="1595" 
d="M650 -282v172h286v-172l-143 -229h-100l72 229h-115zM804 239q117 0 187 38t96 121h445q-36 -228 -218 -333t-510 -105q-368 0 -552 133t-184 425t184 424.5t552 132.5q328 0 510 -105t218 -333h-445q-26 83 -96 121t-187 38q-152 0 -225 -65.5t-73 -212.5t73 -213
t225 -66z" />
    <glyph glyph-name="egrave" unicode="&#xe8;" horiz-adv-x="1601" 
d="M936 1200h-229l-287 259h344zM1537 448h-1026q16 -106 88 -157.5t207 -51.5q64 0 117.5 5.5t85.5 12.5t63 20.5t43 21t32.5 23t25.5 18.5l284 -165q-108 -117 -254.5 -166t-396.5 -49q-366 0 -552 137t-186 430q0 291 183 419.5t553 128.5t553.5 -128.5t183.5 -419.5
q0 -29 -4 -79zM804 796q-135 0 -198 -32.5t-87 -116.5h570q-24 84 -87 116.5t-198 32.5z" />
    <glyph glyph-name="eacute" unicode="&#xe9;" horiz-adv-x="1601" 
d="M1193 1459l-287 -259h-229l172 259h344zM1537 448h-1026q16 -106 88 -157.5t207 -51.5q64 0 117.5 5.5t85.5 12.5t63 20.5t43 21t32.5 23t25.5 18.5l284 -165q-108 -117 -254.5 -166t-396.5 -49q-366 0 -552 137t-186 430q0 291 183 419.5t553 128.5t553.5 -128.5
t183.5 -419.5q0 -29 -4 -79zM804 796q-135 0 -198 -32.5t-87 -116.5h570q-24 84 -87 116.5t-198 32.5z" />
    <glyph glyph-name="ecircumflex" unicode="&#xea;" horiz-adv-x="1601" 
d="M693 1200h-284l-1 1l257 254h286l257 -254l-1 -1h-284l-115 114zM1537 448h-1026q16 -106 88 -157.5t207 -51.5q64 0 117.5 5.5t85.5 12.5t63 20.5t43 21t32.5 23t25.5 18.5l284 -165q-108 -117 -254.5 -166t-396.5 -49q-366 0 -552 137t-186 430q0 291 183 419.5
t553 128.5t553.5 -128.5t183.5 -419.5q0 -29 -4 -79zM804 796q-135 0 -198 -32.5t-87 -116.5h570q-24 84 -87 116.5t-198 32.5z" />
    <glyph glyph-name="edieresis" unicode="&#xeb;" horiz-adv-x="1601" 
d="M721 1212h-229v230h229v-230zM1123 1212h-230v230h230v-230zM1537 448h-1026q16 -106 88 -157.5t207 -51.5q64 0 117.5 5.5t85.5 12.5t63 20.5t43 21t32.5 23t25.5 18.5l284 -165q-108 -117 -254.5 -166t-396.5 -49q-366 0 -552 137t-186 430q0 291 183 419.5t553 128.5
t553.5 -128.5t183.5 -419.5q0 -29 -4 -79zM804 796q-135 0 -198 -32.5t-87 -116.5h570q-24 84 -87 116.5t-198 32.5z" />
    <glyph glyph-name="igrave" unicode="&#xec;" horiz-adv-x="661" 
d="M461 1196h-229l-287 259h344zM549 0h-438v1035h438v-1035z" />
    <glyph glyph-name="iacute" unicode="&#xed;" horiz-adv-x="661" 
d="M693 1455l-287 -259h-230l172 259h345zM549 0h-438v1035h438v-1035z" />
    <glyph glyph-name="icircumflex" unicode="&#xee;" horiz-adv-x="661" 
d="M474 1455l257 -254l-1 -1h-284l-115 114l-116 -114h-284l-1 1l258 254h286zM550 0h-438v1035h438v-1035z" />
    <glyph glyph-name="idieresis" unicode="&#xef;" horiz-adv-x="661" 
d="M244 1196h-230v230h230v-230zM646 1196h-230v230h230v-230zM548 0h-438v1035h438v-1035z" />
    <glyph glyph-name="eth" unicode="&#xf0;" horiz-adv-x="1654" 
d="M1543 1354h139v-199h-139v-1155h-398l-40 80q-5 -5 -14.5 -13t-45 -28.5t-77.5 -36.5t-112.5 -29t-148.5 -13q-113 0 -204.5 15.5t-174 55t-138 101.5t-88 160t-32.5 226t32.5 225.5t88 160t138 101.5t174 54.5t204.5 15.5q78 0 148 -12.5t113.5 -29.5t76 -34.5
t46.5 -30.5l14 -12v199h-179v199h179v80h438v-80zM806 239q83 0 148.5 27t108 92t42.5 160q0 72 -24 127t-66 87t-94.5 48t-114.5 16t-114 -16t-94 -48t-66 -87t-24 -127t24 -127t66 -87.5t94 -48.5t114 -16z" />
    <glyph glyph-name="ntilde" unicode="&#xf1;" horiz-adv-x="1675" 
d="M828 1231q-83 25 -137 23.5t-98 -45.5l-144 143q53 53 112 78q55 24 119 27q70 3 198 -29q83 -26 139.5 -23.5t101.5 47.5l144 -143q-53 -53 -114 -80q-55 -24 -120 -27q-3 0 -9.5 -0.5t-9.5 -0.5q-64 0 -182 30zM987 1075q137 0 244.5 -31.5t187.5 -97t122.5 -174
t42.5 -254.5v-518h-438v518q0 72 -24 127t-66 87t-94.5 48t-114.5 16t-114 -16t-94 -48t-66 -87t-24 -127v-518h-438v1035h438v-79q6 5 18.5 13t55 28.5t90 36t122 28.5t152.5 13z" />
    <glyph glyph-name="ograve" unicode="&#xf2;" horiz-adv-x="1609" 
d="M934 1240h-229l-287 258h344zM804 1075q368 0 552.5 -132.5t184.5 -424.5t-184.5 -425t-552.5 -133t-552 133t-184 425t184 424.5t552 132.5zM804 239q152 0 225.5 66t73.5 213t-73.5 212.5t-225.5 65.5t-225 -65.5t-73 -212.5t73 -213t225 -66z" />
    <glyph glyph-name="oacute" unicode="&#xf3;" horiz-adv-x="1609" 
d="M1190 1498l-287 -258h-229l172 258h344zM804 1075q368 0 552.5 -132.5t184.5 -424.5t-184.5 -425t-552.5 -133t-552 133t-184 425t184 424.5t552 132.5zM804 239q152 0 225.5 66t73.5 213t-73.5 212.5t-225.5 65.5t-225 -65.5t-73 -212.5t73 -213t225 -66z" />
    <glyph glyph-name="ocircumflex" unicode="&#xf4;" horiz-adv-x="1609" 
d="M689 1243h-284l-1 1l257 254h286l258 -254l-1 -1h-284l-116 114zM804 1075q368 0 552.5 -132.5t184.5 -424.5t-184.5 -425t-552.5 -133t-552 133t-184 425t184 424.5t552 132.5zM804 239q152 0 225.5 66t73.5 213t-73.5 212.5t-225.5 65.5t-225 -65.5t-73 -212.5t73 -213
t225 -66z" />
    <glyph glyph-name="otilde" unicode="&#xf5;" horiz-adv-x="1609" 
d="M776 1272q-83 25 -137.5 23t-98.5 -46l-143 144q53 53 112 78q55 24 119 27q70 3 198 -29q83 -26 139.5 -23.5t101.5 47.5l144 -144q-52 -52 -114 -79q-58 -25 -120 -28h-19q-64 0 -182 30zM804 1075q368 0 552.5 -132.5t184.5 -424.5t-184.5 -425t-552.5 -133t-552 133
t-184 425t184 424.5t552 132.5zM804 239q152 0 225.5 66t73.5 213t-73.5 212.5t-225.5 65.5t-225 -65.5t-73 -212.5t73 -213t225 -66z" />
    <glyph glyph-name="odieresis" unicode="&#xf6;" horiz-adv-x="1609" 
d="M718 1252h-229v229h229v-229zM1120 1252h-230v229h230v-229zM804 1075q368 0 552.5 -132.5t184.5 -424.5t-184.5 -425t-552.5 -133t-552 133t-184 425t184 424.5t552 132.5zM804 239q152 0 225.5 66t73.5 213t-73.5 212.5t-225.5 65.5t-225 -65.5t-73 -212.5t73 -213
t225 -66z" />
    <glyph glyph-name="divide" unicode="&#xf7;" horiz-adv-x="1263" 
d="M1205 545h-1148v344h1148v-344zM631 975q-71 0 -121.5 50.5t-50.5 121.5t50.5 121.5t121.5 50.5t121.5 -50.5t50.5 -121.5t-50.5 -121.5t-121.5 -50.5zM631 114q-71 0 -121.5 50.5t-50.5 121.5t50.5 122t121.5 51t121.5 -51t50.5 -122t-50.5 -121.5t-121.5 -50.5z" />
    <glyph glyph-name="oslash" unicode="&#xf8;" horiz-adv-x="1669" 
d="M1615 984l-150 -114q108 -131 108 -352q0 -292 -184.5 -425t-552.5 -133q-288 0 -461 79l-156 -119l-162 211l114 87q-72 121 -72 300q0 292 184.5 424.5t552.5 132.5q237 0 392 -52l226 172zM537 518q0 -4 0.5 -11t0.5 -10l384 293q-39 6 -86 6q-152 0 -225.5 -65.5
t-73.5 -212.5zM836 239q152 0 225.5 66t73.5 213q0 51 -9 93l-453 -345q66 -27 163 -27z" />
    <glyph glyph-name="ugrave" unicode="&#xf9;" horiz-adv-x="1675" 
d="M957 1201h-229l-287 258h344zM1125 1035h439v-1035h-399l-40 80q-6 -5 -18.5 -13t-55 -28.5t-90 -36.5t-122 -29t-152.5 -13q-137 0 -244.5 31.5t-187.5 97.5t-122.5 174.5t-42.5 254.5v517h438v-517q0 -95 42.5 -160t108 -92t148.5 -27q62 0 114 16t94 48.5t66 87.5
t24 127v517z" />
    <glyph glyph-name="uacute" unicode="&#xfa;" horiz-adv-x="1675" 
d="M1217 1460l-287 -259h-229l172 259h344zM1125 1035h439v-1035h-399l-40 80q-6 -5 -18.5 -13t-55 -28.5t-90 -36.5t-122 -29t-152.5 -13q-137 0 -244.5 31.5t-187.5 97.5t-122.5 174.5t-42.5 254.5v517h438v-517q0 -95 42.5 -160t108 -92t148.5 -27q62 0 114 16t94 48.5
t66 87.5t24 127v517z" />
    <glyph glyph-name="ucircumflex" unicode="&#xfb;" horiz-adv-x="1675" 
d="M712 1209h-284h-1l257 254h286l257 -254h-1h-284l-115 113zM1125 1035h439v-1035h-399l-40 80q-6 -5 -18.5 -13t-55 -28.5t-90 -36.5t-122 -29t-152.5 -13q-137 0 -244.5 31.5t-187.5 97.5t-122.5 174.5t-42.5 254.5v517h438v-517q0 -95 42.5 -160t108 -92t148.5 -27
q62 0 114 16t94 48.5t66 87.5t24 127v517z" />
    <glyph glyph-name="udieresis" unicode="&#xfc;" horiz-adv-x="1675" 
d="M742 1225h-230v229h230v-229zM1144 1225h-230v229h230v-229zM1125 1035h439v-1035h-399l-40 80q-6 -5 -18.5 -13t-55 -28.5t-90 -36.5t-122 -29t-152.5 -13q-137 0 -244.5 31.5t-187.5 97.5t-122.5 174.5t-42.5 254.5v517h438v-517q0 -95 42.5 -160t108 -92t148.5 -27
q62 0 114 16t94 48.5t66 87.5t24 127v517z" />
    <glyph glyph-name="yacute" unicode="&#xfd;" horiz-adv-x="1445" 
d="M1105 1467l-287 -258h-229l172 258h344zM1019 1033h411l-579 -1075q-106 -197 -119 -220q-85 -141 -174 -198q-135 -85 -381 -44q-54 9 -115 24v338q154 -32 190 -34q77 -5 125 42q30 31 63 92h1l76 142l-503 933h411l297 -552z" />
    <glyph glyph-name="thorn" unicode="&#xfe;" horiz-adv-x="1601" 
d="M1504 922q41 -95 41 -206q0 -112 -41 -207q-40 -95 -114 -168q-72 -72 -168 -113q-98 -42 -206 -42h-475v-187h-430v1435h430v-189h475q111 0 206 -41q94 -40 168 -114t114 -168zM928 530q76 0 131 55t55 131t-54.5 130.5t-131.5 54.5h-387v-371h387z" />
    <glyph glyph-name="ydieresis" unicode="&#xff;" horiz-adv-x="1445" 
d="M632 1224h-229v229h229v-229zM1034 1224h-229v229h229v-229zM1019 1033h411l-579 -1075q-106 -197 -119 -220q-85 -141 -174 -198q-135 -85 -381 -44q-54 9 -115 24v338q154 -32 190 -34q77 -5 125 42q30 31 63 92h1l76 142l-503 933h411l297 -552z" />
    <glyph glyph-name="dotlessi" unicode="&#x131;" horiz-adv-x="567" 
d="M455 0h-344v1115h344v-1115z" />
    <glyph glyph-name="Lslash" unicode="&#x141;" horiz-adv-x="1710" 
d="M690 358h996v-358h-1434v379l-80 -71l-158 180l238 208v738h438v-354l280 244l157 -179l-437 -383v-404z" />
    <glyph glyph-name="lslash" unicode="&#x142;" horiz-adv-x="1126" 
d="M976 1225l158 -180l-341 -298v-747h-438v364l-177 -155l-158 180l335 292v753h438v-369z" />
    <glyph glyph-name="OE" unicode="&#x152;" horiz-adv-x="3031" 
d="M2937 1075h-1036v-179h956v-358h-956v-180h1036v-358h-1474v15q-180 -55 -477 -55q-175 0 -310.5 21t-252 73.5t-192.5 138t-118.5 217t-42.5 307.5q0 207 58 353t176.5 234.5t285 128.5t396.5 40q289 0 477 -63v24h1474v-359zM986 319q110 0 186.5 17.5t135.5 61.5
t87.5 123t28.5 196q0 118 -27.5 196.5t-86 122.5t-135.5 61.5t-189 17.5q-111 0 -188 -17.5t-135.5 -61.5t-87 -122.5t-28.5 -196.5t28.5 -196.5t87 -122.5t135.5 -61.5t188 -17.5z" />
    <glyph glyph-name="oe" unicode="&#x153;" horiz-adv-x="2635" 
d="M2573 448h-1027q16 -106 88 -157.5t207 -51.5q64 0 117.5 5.5t85.5 12.5t63 20.5t43 21t32.5 23t25.5 18.5l284 -165q-108 -117 -254.5 -166t-396.5 -49q-336 0 -515 112q-180 -112 -522 -112q-368 0 -552 133t-184 425t184 424.5t552 132.5q336 0 514 -107
q177 107 522 107q370 0 553 -128.5t183 -419.5q0 -41 -3 -79zM804 239q152 0 225.5 66t73.5 213t-73.5 212.5t-225.5 65.5t-225 -65.5t-73 -212.5t73 -213t225 -66zM1840 796q-135 0 -198 -32.5t-87 -116.5h570q-24 84 -87 116.5t-198 32.5z" />
    <glyph glyph-name="Scaron" unicode="&#x160;" horiz-adv-x="1904" 
d="M1096 1549h-286l-258 254l1 1h284l116 -114l115 114h284l1 -1zM957 896q99 -3 171 -7t153.5 -12t139 -19.5t118 -29t101.5 -41.5t79 -57.5t59.5 -75.5t34.5 -96t13 -120h-1q0 -84 -21 -151.5t-58.5 -117.5t-97 -86.5t-129 -60t-162.5 -37.5t-189.5 -19.5t-217.5 -5.5
q-127 0 -225 5.5t-192 20.5t-162.5 40t-127 64.5t-94 93.5t-55.5 127.5t-20 166.5h438q0 -24 4.5 -43.5t17 -34.5t24 -26.5t35.5 -20t41 -14.5t51.5 -10t56 -6t65 -3t68 -1h75.5q122 0 179 2t128 12.5t99 36t28 68.5q0 31 -12 53.5t-35 36.5t-55.5 23t-73.5 13.5t-88.5 6.5
t-101.5 4q-48 1 -73 2l-1 1h-1q-112 4 -190.5 8.5t-166.5 14t-147 24t-119.5 37t-98.5 54t-69 74t-44.5 99t-13.5 126.5q0 93 25.5 165t78 122t122.5 83.5t170 52.5t209 27t250 8q127 0 224 -5.5t189 -20.5t158.5 -40t122.5 -64t90.5 -93t53 -127.5t18.5 -166.5h-438
q0 24 -4 43.5t-15 34.5t-21.5 26.5t-33 20t-38 14.5t-48 10t-53 6t-63 3t-67 1h-75.5q-120 0 -175 -2t-122 -10.5t-92 -30t-25 -57.5q0 -70 84 -94q59 -17 245 -22q63 -2 91 -3h1h1z" />
    <glyph glyph-name="scaron" unicode="&#x161;" horiz-adv-x="1546" 
d="M916 1208h-285l-258 254l1 1h284l115 -113l116 113h284l1 -1zM850 657q238 0 373.5 -35.5t190 -107t54.5 -195.5q0 -87 -19.5 -145t-64.5 -101.5t-127.5 -67t-198.5 -34.5t-287 -11q-172 0 -287.5 11t-198 34.5t-127.5 66.5t-64.5 101.5t-19.5 145.5h418
q0 -30 12.5 -46.5t55 -23.5t81 -8.5t130.5 -1.5q169 0 223.5 11t54.5 61q0 48 -64.5 58t-293.5 10q-179 0 -295 18.5t-183.5 61.5t-93.5 103.5t-26 154.5q0 76 17 129.5t61 99t120.5 72.5t195 42t284.5 15q167 0 285 -14t194.5 -40.5t120 -72t60.5 -99.5t17 -132h-399
q0 29 -17.5 45.5t-62.5 23.5t-81 8.5t-111 1.5h-6q-171 0 -225 -10.5t-54 -60.5q0 -47 66 -57.5t292 -10.5z" />
    <glyph glyph-name="Ydieresis" unicode="&#x178;" horiz-adv-x="1732" 
d="M776 1564h-229v229h229v-229zM1178 1564h-230v229h230v-229zM1224 1434h518l-657 -910v-524h-438v524l-657 910h517l359 -497z" />
    <glyph glyph-name="Zcaron" unicode="&#x17d;" horiz-adv-x="1740" 
d="M1010 1549h-286l-257 254l1 1h284l115 -114l116 114h284l1 -1zM1667 1434v-351l-906 -725h906v-358h-1593v350l906 725h-906v359h1593z" />
    <glyph glyph-name="zcaron" unicode="&#x17e;" horiz-adv-x="1511" 
d="M895 1208h-286l-257 254l1 1h284l115 -113l115 113h284l1 -1zM1432 1035v-278l-757 -478h757v-279h-1354v279l756 478h-756v278h1354z" />
    <glyph glyph-name="circumflex" unicode="&#x2c6;" horiz-adv-x="866" 
d="M576 1430l257 -254l-1 -1h-284l-115 114l-115 -114h-284l-1 1l257 254h286z" />
    <glyph glyph-name="caron" unicode="&#x2c7;" horiz-adv-x="858" 
d="M828 1434l1 -1l-257 -254h-286l-257 254l1 1h284l115 -114l115 114h284z" />
    <glyph glyph-name="ilde" unicode="&#x2dc;" horiz-adv-x="899" 
d="M713 1428l144 -144q-52 -52 -114 -79q-55 -24 -120 -27q-3 0 -9.5 -0.5t-9.5 -0.5q-64 0 -182 30q-83 25 -137 23t-98 -46l-144 144q53 53 112 78q55 24 119 27q70 3 198 -29q83 -26 139.5 -23.5t101.5 47.5z" />
    <glyph glyph-name="endash" unicode="&#x2013;" horiz-adv-x="1267" 
d="M1207 542h-1148v344h1148v-344z" />
    <glyph glyph-name="emdash" unicode="&#x2014;" horiz-adv-x="1841" 
d="M1781 545h-1722v344h1722v-344z" />
    <glyph glyph-name="quoteleft" unicode="&#x2018;" horiz-adv-x="559" 
d="M319 1112h161v-401h-402v401l201 322h140z" />
    <glyph glyph-name="quoteright" unicode="&#x2019;" horiz-adv-x="557" 
d="M78 1434h402v-402l-201 -321h-141l101 321h-161v402z" />
    <glyph glyph-name="quotesinglbase" unicode="&#x201a;" horiz-adv-x="534" 
d="M66 409h401v-401l-201 -322h-140l100 322h-160v401z" />
    <glyph glyph-name="quoteleftreversed" unicode="&#x201b;" horiz-adv-x="557" 
d="M477 1421v-401h-160l100 -322h-140l-201 322v401h401z" />
    <glyph glyph-name="quotedblleft" unicode="&#x201c;" horiz-adv-x="1120" 
d="M881 1112h161v-401h-402v401l201 322h141zM419 1434l-100 -322h161v-401h-402v401l201 322h140z" />
    <glyph glyph-name="quotedblright" unicode="&#x201d;" horiz-adv-x="1118" 
d="M78 1032v402h402v-402l-201 -321h-141l101 321h-161zM640 1434h402v-402l-201 -321h-141l101 321h-161v402z" />
    <glyph glyph-name="quotedblbase" unicode="&#x201e;" horiz-adv-x="1095" 
d="M66 7v402h401v-402l-201 -321h-140l100 321h-160zM628 409h402v-402l-201 -321h-141l101 321h-161v402z" />
    <glyph glyph-name="dagger" unicode="&#x2020;" horiz-adv-x="1280" 
d="M812 1143h401v-344h-401v-1118h-345v1118h-401v344h401v287h345v-287z" />
    <glyph glyph-name="daggerdbl" unicode="&#x2021;" horiz-adv-x="1345" 
d="M1246 803h-402v-490h402v-345h-402v-287h-344v287h-402v345h402v490h-402v344h402v287h344v-287h402v-344z" />
    <glyph glyph-name="bullet" unicode="&#x2022;" horiz-adv-x="659" 
d="M329 451q-110 0 -188 78t-78 188t78 187.5t188 77.5t187.5 -77.5t77.5 -187.5t-77.5 -188t-187.5 -78z" />
    <glyph glyph-name="ellipsis" unicode="&#x2026;" horiz-adv-x="1775" 
d="M1088 2h-402v402h402v-402zM1710 2h-401v402h401v-402zM465 2h-402v402h402v-402z" />
    <glyph glyph-name="perthousand" unicode="&#x2030;" horiz-adv-x="2953" 
d="M2872 417q21 -49 23 -121q0 -182 -158 -269q-64 -36 -129.5 -51.5t-206.5 -15.5q-140 0 -209 15.5t-136 54.5q-1 0 -3.5 -1t-3.5 -2q-64 -36 -129.5 -51.5t-206.5 -15.5q-145 0 -214.5 16.5t-141.5 60.5q-80 48 -115 129q-22 52 -24 120q0 182 159 270q64 35 129.5 50.5
t206.5 15.5q140 0 209 -15.5t136 -54.5q1 0 3.5 2t3.5 2q64 35 129.5 50.5t206.5 15.5q146 0 215 -16.5t141 -59.5q80 -48 115 -129zM1907 274q0 2 -0.5 6t-0.5 6q0 10 2 30q-22 69 -195 69q-81 0 -139.5 -25.5t-58.5 -73.5q0 -33 30 -53.5t72 -28t96 -7.5q70 0 125.5 19.5
t68.5 57.5zM2401 197q81 0 139.5 25.5t58.5 73.5q0 33 -30 53.5t-72 28t-96 7.5q-71 0 -126 -19.5t-68 -56.5v-13q0 -20 -1 -30q22 -69 195 -69zM888 883q-64 -35 -129.5 -50.5t-206.5 -15.5q-145 0 -214.5 16.5t-141.5 60.5q-80 48 -115 129q-22 52 -24 120q0 182 159 270
q64 35 129.5 50.5t206.5 15.5q145 0 214.5 -16.5t141.5 -60.5q80 -48 115 -129q21 -49 23 -120q0 -99 -45 -165.5t-113 -104.5zM354 1143q0 -33 30 -53.5t72 -28t96 -7.5q81 0 139.5 25.5t58.5 73.5q0 33 -30 53.5t-72 28t-96 7.5q-81 0 -139.5 -25.5t-58.5 -73.5z
M1433 1436h422l-1017 -1433h-422z" />
    <glyph glyph-name="guilsinglleft" unicode="&#x2039;" horiz-adv-x="675" 
d="M562 1469v-502l-237 -250l237 -251v-501l-474 501v502z" />
    <glyph glyph-name="guilsinglright" unicode="&#x203a;" horiz-adv-x="675" 
d="M113 1468l473 -501v-502l-473 -501v502l236 250l-236 251v501z" />
    <glyph glyph-name="fraction" unicode="&#x2044;" horiz-adv-x="1966" 
d="M1461 1434h487l-1434 -1435h-487z" />
    <glyph glyph-name="Euro" unicode="&#x20ac;" horiz-adv-x="2119" 
d="M1578 545h454q-16 -103 -47 -179q-39 -100 -107 -174.5t-148.5 -118.5t-185.5 -70.5t-204.5 -35t-218.5 -6.5q-118 -2 -218.5 7.5t-204.5 36.5t-185 72t-149 120t-107 174q-22 50 -39 133h-146v143h128q-5 69 0 139h-128v144h146q17 81 39 132q39 99 107 174t149 120
t185 72.5t205 37t218 7.5q117 2 218 -7.5t205 -37t185 -72.5t149 -120t107 -174q30 -72 46 -173h-455q-3 9 -7 18q-27 70 -75 117.5t-142.5 77.5t-230.5 30q-344 0 -438 -202h472v-144h-507q-6 -69 0 -139h507v-143h-472q94 -202 438 -202q201 0 305.5 56.5t142.5 160.5
q3 8 9 26z" />
    <glyph glyph-name="trademark" unicode="&#x2122;" horiz-adv-x="901" 
d="M43 1434h347v-76h-126v-239h-95v239h-126v76zM725 1434h119v-315h-95v145l-69 -145h-95l-69 145v-145h-95v315h119l92 -195z" />
    <glyph glyph-name="minus" unicode="&#x2212;" horiz-adv-x="1267" 
d="M1207 549h-1148v345h1148v-345z" />
    <glyph glyph-name="A.alt1" unicode="&#xf000;" horiz-adv-x="2781" 
d="M2226 0l-124 159h-1425l-124 -159h-557l1115 1434h557l1115 -1434h-557zM956 518h867l-433 557z" />
    <glyph glyph-name="B.alt1" unicode="&#xf001;" horiz-adv-x="2617" 
d="M2374 753q82 -57 130 -146.5t48 -193.5q0 -171 -121 -292t-292 -121h-2016v1434h1936q171 0 292 -121t121 -292q0 -154 -98 -268zM1935 1075h-1374v-199h1374q41 0 70 29.5t29 70.5t-29 70t-70 29zM2014 358q41 0 70.5 29.5t29.5 70.5t-29.5 70.5t-70.5 29.5h-1453v-200
h1453z" />
    <glyph glyph-name="C.alt1" unicode="&#xf002;" horiz-adv-x="2752" 
d="M986 319h796q179 0 281.5 52.5t137.5 186.5h487q-20 -173 -87.5 -290t-186 -184.5t-270 -95.5t-362.5 -28h-796q-175 0 -310.5 21t-252 73.5t-192.5 138t-118.5 217t-42.5 307.5q0 207 58 353t176.5 234.5t285 128.5t396.5 40h796q206 0 360.5 -32t270.5 -102t184 -185.5
t90 -277.5h-485q-34 134 -136 186.5t-284 52.5h-796q-111 0 -188 -17.5t-135.5 -61.5t-87 -122.5t-28.5 -196.5t28.5 -196.5t87 -122.5t135.5 -61.5t188 -17.5z" />
    <glyph glyph-name="D.alt1" unicode="&#xf003;" horiz-adv-x="2699" 
d="M1756 0h-1633v1434h1633q219 0 378 -38t272.5 -122t169 -222.5t55.5 -334.5q0 -168 -37 -291.5t-106 -205t-179 -131t-242.5 -69.5t-310.5 -20zM561 358h1195q86 0 148.5 8t120 31.5t93 62.5t56 103.5t20.5 153.5t-20.5 153t-55.5 103.5t-92 62.5t-120 31t-150 8h-1195
v-717z" />
    <glyph glyph-name="E.alt1" unicode="&#xf004;" horiz-adv-x="2488" 
d="M561 358h1832v-358h-2270v1434h2270v-359h-1832v-179h1752v-358h-1752v-180z" />
    <glyph glyph-name="F.alt1" unicode="&#xf005;" horiz-adv-x="2586" 
d="M561 0h-438v1434h2409v-359h-1971v-179h1891v-358h-1891v-538z" />
    <glyph glyph-name="G.alt1" unicode="&#xf006;" horiz-adv-x="2793" 
d="M1783 -40h-797q-175 0 -310.5 21t-252 73.5t-192.5 138t-118.5 217t-42.5 307.5q0 207 58 353t176.5 234.5t285 128.5t396.5 40h797q402 0 624.5 -130t274.5 -427h-491q-41 111 -140.5 155t-267.5 44h-797q-111 0 -187.5 -17.5t-135.5 -61.5t-87 -122.5t-28 -196.5
t28 -196.5t87 -122.5t135.5 -61.5t187.5 -17.5h797q132 0 221 27t141 92h-761v319h1314v-757h-319v63q-205 -103 -596 -103z" />
    <glyph glyph-name="H.alt1" unicode="&#xf007;" horiz-adv-x="2715" 
d="M2154 1434h438v-1434h-438v538h-1593v-538h-438v1434h438v-538h1593v538z" />
    <glyph glyph-name="I.alt1" unicode="&#xf008;" horiz-adv-x="1480" 
d="M1357 0h-1234v1434h1234v-1434z" />
    <glyph glyph-name="J.alt1" unicode="&#xf009;" horiz-adv-x="2523" 
d="M1987 1434h438v-717q0 -146 -28 -263t-81.5 -199t-124 -140t-162.5 -91.5t-189 -48.5t-211 -15h-797q-139 0 -252.5 21t-217 74t-174 137t-112 217.5t-41.5 307.5h438q0 -93 18.5 -163.5t50 -114.5t78 -71.5t97.5 -38t115 -10.5h797q63 0 113.5 10.5t97.5 38t78.5 71.5
t50 114.5t18.5 163.5v717z" />
    <glyph glyph-name="K.alt1" unicode="&#xf00a;" horiz-adv-x="2512" 
d="M1716 0l-983 485l-172 -94v-391h-438v1434h438v-652l1195 652h716l-1361 -743l1401 -691h-796z" />
    <glyph glyph-name="L.alt1" unicode="&#xf00b;" horiz-adv-x="2377" 
d="M561 358h1792v-358h-2230v1434h438v-1076z" />
    <glyph glyph-name="M.alt1" unicode="&#xf00c;" horiz-adv-x="3112" 
d="M2393 1434h597v-1434h-438v1024l-796 -1024h-399l-796 1024v-1024h-438v1434h597l836 -1076z" />
    <glyph glyph-name="N.alt1" unicode="&#xf00d;" horiz-adv-x="2754" 
d="M2194 1434h438v-1434h-478l-1593 974v-974h-438v1434h478l1593 -974v974z" />
    <glyph glyph-name="O.alt1" unicode="&#xf00e;" horiz-adv-x="2768" 
d="M1782 1473q229 0 395.5 -40t285 -128.5t177 -234.5t58.5 -353q0 -177 -39 -307.5t-111 -216.5t-187 -138t-254 -73.5t-325 -21.5h-796q-175 0 -310.5 21t-252 73.5t-192.5 138t-118.5 217t-42.5 307.5q0 207 58 353t176.5 234.5t285 128.5t396.5 40h796zM1782 319
q110 0 186.5 17.5t135.5 61.5t87.5 123t28.5 196q0 118 -27.5 196.5t-86 122.5t-135.5 61.5t-189 17.5h-796q-111 0 -188 -17.5t-135.5 -61.5t-87 -122.5t-28.5 -196.5t28.5 -196.5t87 -122.5t135.5 -61.5t188 -17.5h796z" />
    <glyph glyph-name="P.alt1" unicode="&#xf00f;" horiz-adv-x="2478" 
d="M1895 1434q109 0 208.5 -43t171.5 -115t115 -171.5t43 -208.5t-43 -208.5t-115 -171.5t-171.5 -115t-208.5 -43h-1334v-358h-438v1434h1772zM1815 717q74 0 127 52.5t53 126.5t-53 126.5t-127 52.5h-1254v-358h1254z" />
    <glyph glyph-name="Q.alt1" unicode="&#xf010;" horiz-adv-x="2777" 
d="M2698 717q0 -324 -128 -497l88 -88l-238 -238l-132 131q-188 -65 -506 -65h-796q-175 0 -310.5 21t-252 73.5t-192.5 138t-118.5 217t-42.5 307.5q0 207 58 353t176.5 234.5t285 128.5t396.5 40h796q229 0 395.5 -40t285 -128.5t177 -234.5t58.5 -353zM2208 582
q12 58 12 135q0 118 -27.5 196.5t-86 122.5t-135.5 61.5t-189 17.5h-796q-111 0 -188 -17.5t-135.5 -61.5t-87 -122.5t-28.5 -196.5t28.5 -196.5t87 -122.5t135.5 -61.5t188 -17.5h796q117 0 193 19l-143 140l238 239z" />
    <glyph glyph-name="R.alt1" unicode="&#xf011;" horiz-adv-x="2629" 
d="M2326 458l242 -458h-494l-189 358h-1324v-358h-438v1434h1891q109 0 208.5 -43t171.5 -115t115 -171.5t43 -208.5q0 -133 -60.5 -248t-165.5 -190zM1935 717q74 0 126.5 52.5t52.5 126.5t-52.5 126.5t-126.5 52.5h-1374v-358h1374z" />
    <glyph glyph-name="S.alt1" unicode="&#xf012;" horiz-adv-x="2707" 
d="M1746 896q123 0 217.5 -4.5t190 -17t164.5 -33.5t130.5 -55.5t99.5 -82.5t59.5 -114.5t21.5 -150.5h-1q0 -98 -27.5 -173.5t-83 -127.5t-129 -87t-177 -54.5t-213.5 -27.5t-252 -8h-796q-127 0 -225 5.5t-192 20.5t-162.5 40t-127 64.5t-94 93.5t-55.5 127.5t-20 166.5
h438q0 -24 4.5 -43.5t17 -34.5t24 -26.5t35.5 -20t41 -14.5t51.5 -10t56 -6t65 -3t68 -1h75.5h796q122 0 180 2t130.5 12.5t101.5 36t29 68.5q0 34 -13 59t-46.5 40t-63.5 23.5t-92.5 12.5t-102.5 4.5t-123 0.5h-796q-123 0 -217 4.5t-186.5 16t-159 32t-124.5 53.5
t-93.5 79t-55.5 109t-20 143t20 144.5t56 112t93 82.5t125 58t159 36.5t187 19t216 5.5h796q110 0 197.5 -4.5t172.5 -15t149 -29t121.5 -46t97 -66.5t68.5 -90.5t43 -117.5t14 -148h-438q0 24 -4 43.5t-16 34.5t-22.5 26.5t-33.5 20t-39 14.5t-49 10t-54 6t-64 3t-67.5 1
h-75.5h-796q-120 0 -175.5 -2t-122.5 -10.5t-92 -30t-25 -57.5q0 -81 88 -100t315 -19h12h796z" />
    <glyph glyph-name="T.alt1" unicode="&#xf013;" horiz-adv-x="2594" 
d="M23 1434h2548v-359h-1055v-1075h-438v1075h-1055v359z" />
    <glyph glyph-name="U.alt1" unicode="&#xf014;" horiz-adv-x="2662" 
d="M2127 1434h438v-717q0 -175 -42 -307.5t-114 -217t-180 -137.5t-229 -74t-271 -21h-796q-151 0 -272 21t-229 74t-180 137.5t-114 217t-42 307.5v717h438v-717q0 -94 19 -164t52 -114t84.5 -71.5t109.5 -38t134 -10.5h796q75 0 133 10.5t109.5 38t84.5 71.5t52 114
t19 164v717z" />
    <glyph glyph-name="V.alt1" unicode="&#xf015;" horiz-adv-x="2605" 
d="M2098 1434h518l-1115 -1434h-398l-1115 1434h517l797 -1016z" />
    <glyph glyph-name="W.alt1" unicode="&#xf016;" horiz-adv-x="3493" 
d="M3015 1434h477l-677 -1434h-597l-472 1010l-472 -1010h-597l-677 1434h478l522 -1106l513 1106h466l513 -1106z" />
    <glyph glyph-name="X.alt1" unicode="&#xf017;" horiz-adv-x="2637" 
d="M2632 1434l-995 -717l995 -717h-637l-677 487l-677 -487h-637l996 717l-996 717h637l677 -488l677 488h637z" />
    <glyph glyph-name="Y.alt1" unicode="&#xf018;" horiz-adv-x="2516" 
d="M1975 1434h557l-1055 -1019v-415h-438v415l-1055 1019h557l717 -689z" />
    <glyph glyph-name="Z.alt1" unicode="&#xf019;" horiz-adv-x="2537" 
d="M2463 1434v-359l-1553 -717h1553v-358h-2389v358l1513 717h-1513v359h2389z" />
    <glyph glyph-name="A.alt2" unicode="&#xf01a;" horiz-adv-x="3647" 
d="M3058 0l-172 159h-2124l-173 -159h-597l1553 1434h557l1553 -1434h-597zM1150 518h1347l-673 622z" />
    <glyph glyph-name="B.alt2" unicode="&#xf01b;" horiz-adv-x="3411" 
d="M3170 753q82 -57 130 -146.5t48 -193.5q0 -171 -121 -292t-292 -121h-2812v1434h2733q171 0 292 -121t121 -292q0 -153 -99 -268zM2731 1075h-2170v-199h2170q41 0 70.5 29.5t29.5 70.5t-29.5 70t-70.5 29zM2811 358q41 0 70 29.5t29 70.5t-29 70.5t-70 29.5h-2250v-200
h2250z" />
    <glyph glyph-name="C.alt2" unicode="&#xf01c;" horiz-adv-x="3549" 
d="M986 319h1592q179 0 282 53t138 186h487q-16 -139 -64.5 -241.5t-123 -170.5t-184 -109.5t-238.5 -59t-297 -17.5h-1592q-175 0 -310.5 21t-252 73.5t-192.5 138t-118.5 217t-42.5 307.5q0 207 58 353t176.5 234.5t285 128.5t396.5 40h1592q206 0 360.5 -32t270.5 -102
t184 -185.5t90 -277.5h-485q-34 134 -136 186.5t-284 52.5h-1592q-111 0 -188 -17.5t-135.5 -61.5t-87 -122.5t-28.5 -196.5t28.5 -196.5t87 -122.5t135.5 -61.5t188 -17.5z" />
    <glyph glyph-name="D.alt2" unicode="&#xf01d;" horiz-adv-x="3495" 
d="M2553 0h-2430v1434h2430q219 0 378 -38t272.5 -122t169 -222.5t55.5 -334.5q0 -168 -37 -291.5t-106 -205t-179 -131t-242.5 -69.5t-310.5 -20zM561 358h1992q86 0 148.5 8t120 31.5t93 62.5t56 103.5t20.5 153.5t-20.5 153t-55.5 103.5t-92 62.5t-120 31t-150 8h-1992
v-717z" />
    <glyph glyph-name="E.alt2" unicode="&#xf01e;" horiz-adv-x="3284" 
d="M561 358h2628v-358h-3066v1434h3066v-359h-2628v-179h2549v-358h-2549v-180z" />
    <glyph glyph-name="F.alt2" unicode="&#xf01f;" horiz-adv-x="3362" 
d="M561 0h-438v1434h3186v-359h-2748v-179h2668v-358h-2668v-538z" />
    <glyph glyph-name="G.alt2" unicode="&#xf020;" horiz-adv-x="3588" 
d="M2578 -40h-1592q-175 0 -310.5 21t-252 73.5t-192.5 138t-118.5 217t-42.5 307.5q0 207 58 353t176.5 234.5t285 128.5t396.5 40h1592q402 0 624.5 -130t274.5 -427h-491q-41 111 -140.5 155t-267.5 44h-1592q-111 0 -187.5 -17.5t-135.5 -61.5t-87 -122.5t-28 -196.5
t28 -196.5t87 -122.5t135.5 -61.5t187.5 -17.5h1592q132 0 221.5 27t141.5 92h-1557v319h2109v-757h-318v63q-205 -103 -597 -103z" />
    <glyph glyph-name="H.alt2" unicode="&#xf021;" horiz-adv-x="3512" 
d="M2950 1434h438v-1434h-438v538h-2389v-538h-438v1434h438v-538h2389v538z" />
    <glyph glyph-name="I.alt2" unicode="&#xf022;" horiz-adv-x="2277" 
d="M2154 0h-2031v1434h2031v-1434z" />
    <glyph glyph-name="J.alt2" unicode="&#xf023;" horiz-adv-x="3317" 
d="M2783 1434h438v-717q0 -146 -28 -263t-81.5 -199t-124 -140t-162.5 -91.5t-189 -48.5t-211 -15h-1593q-139 0 -252.5 21t-217 74t-174 137t-112 217.5t-41.5 307.5h438q0 -93 18.5 -163.5t50 -114.5t78 -71.5t97.5 -38t115 -10.5h1593q63 0 113.5 10.5t97.5 38t78.5 71.5
t50 114.5t18.5 163.5v717z" />
    <glyph glyph-name="K.alt2" unicode="&#xf024;" horiz-adv-x="3270" 
d="M3269 1434l-2070 -731l2070 -703h-916l-1603 544l-189 -66v-478h-438v1434h438v-647l1832 647h876z" />
    <glyph glyph-name="L.alt2" unicode="&#xf025;" horiz-adv-x="3174" 
d="M561 358h2588v-358h-3026v1434h438v-1076z" />
    <glyph glyph-name="M.alt2" unicode="&#xf026;" horiz-adv-x="3909" 
d="M3229 1434h558v-1434h-439v1066l-1154 -1066h-478l-1155 1066v-1066h-438v1434h557l1275 -1177z" />
    <glyph glyph-name="N.alt2" unicode="&#xf027;" horiz-adv-x="3551" 
d="M2990 1434h438v-1434h-478l-2389 1018v-1018h-438v1434h478l2389 -1019v1019z" />
    <glyph glyph-name="O.alt2" unicode="&#xf028;" horiz-adv-x="3565" 
d="M2578 1473q229 0 395.5 -40t285 -128.5t177 -234.5t58.5 -353q0 -177 -39 -307.5t-111 -216.5t-187 -138t-254 -73.5t-325 -21.5h-1592q-175 0 -310.5 21t-252 73.5t-192.5 138t-118.5 217t-42.5 307.5q0 207 58 353t176.5 234.5t285 128.5t396.5 40h1592zM2578 319
q110 0 186.5 17.5t135.5 61.5t87.5 123t28.5 196q0 118 -27.5 196.5t-86 122.5t-135.5 61.5t-189 17.5h-1592q-111 0 -188 -17.5t-135.5 -61.5t-87 -122.5t-28.5 -196.5t28.5 -196.5t87 -122.5t135.5 -61.5t188 -17.5h1592z" />
    <glyph glyph-name="P.alt2" unicode="&#xf029;" horiz-adv-x="3274" 
d="M2691 1434q109 0 208.5 -43t171.5 -115t115 -171.5t43 -208.5t-43 -208.5t-115 -171.5t-171.5 -115t-208.5 -43h-2130v-358h-438v1434h2568zM2612 717q74 0 126.5 52.5t52.5 126.5t-52.5 126.5t-126.5 52.5h-2051v-358h2051z" />
    <glyph glyph-name="Q.alt2" unicode="&#xf02a;" horiz-adv-x="3573" 
d="M3494 717q0 -324 -128 -497l89 -88l-239 -238l-131 131q-188 -65 -507 -65h-1592q-175 0 -310.5 21t-252 73.5t-192.5 138t-118.5 217t-42.5 307.5q0 207 58 353t176.5 234.5t285 128.5t396.5 40h1592q229 0 395.5 -40t285 -128.5t177 -234.5t58.5 -353zM3004 582
q12 58 12 135q0 118 -27.5 196.5t-86 122.5t-135.5 61.5t-189 17.5h-1592q-111 0 -188 -17.5t-135.5 -61.5t-87 -122.5t-28.5 -196.5t28.5 -196.5t87 -122.5t135.5 -61.5t188 -17.5h1592q118 0 194 19l-144 140l239 239z" />
    <glyph glyph-name="R.alt2" unicode="&#xf02b;" horiz-adv-x="3424" 
d="M3120 458l242 -458h-494l-189 358h-2118v-358h-438v1434h2686q109 0 208.5 -43t171.5 -115t114.5 -171.5t42.5 -208.5q0 -133 -60.5 -248t-165.5 -190zM2729 717q74 0 126.5 52.5t52.5 126.5t-52.5 126.5t-126.5 52.5h-2168v-358h2168z" />
    <glyph glyph-name="S.alt2" unicode="&#xf02c;" horiz-adv-x="3497" 
d="M2537 896q123 0 217.5 -4.5t190 -17t164.5 -33.5t130.5 -55.5t99.5 -82.5t59.5 -114.5t21.5 -150.5h-1q0 -98 -27.5 -173.5t-83 -127.5t-129 -87t-177 -54.5t-213.5 -27.5t-252 -8h-1587q-127 0 -225 5.5t-192 20.5t-162.5 40t-127 64.5t-94 93.5t-55.5 127.5t-20 166.5
h438q0 -24 4.5 -43.5t17 -34.5t24 -26.5t35.5 -20t41 -14.5t51.5 -10t56 -6t65 -3t68 -1h75.5h1587q122 0 180 2t130.5 12.5t101.5 36t29 68.5q0 34 -13 59t-46.5 40t-63.5 23.5t-92.5 12.5t-102.5 4.5t-123 0.5h-1587q-123 0 -217 4.5t-186.5 16t-159 32t-124.5 53.5
t-93.5 79t-55.5 109t-20 143t20 144.5t56 112t93 82.5t125 58t159 36.5t187 19t216 5.5h1587q149 0 258.5 -8t212 -28.5t171 -57.5t120.5 -94t76 -139t24 -190h-438q0 24 -4 43.5t-15.5 34.5t-22.5 26.5t-33.5 20t-38.5 14.5t-49.5 10t-54 6t-63.5 3t-67.5 1h-75.5h-1587
q-120 0 -175.5 -2t-122.5 -10.5t-92 -30t-25 -57.5q0 -81 88 -100t315 -19h12h1587z" />
    <glyph glyph-name="T.alt2" unicode="&#xf02d;" horiz-adv-x="3391" 
d="M23 1434h3345v-359h-1454v-1075h-438v1075h-1453v359z" />
    <glyph glyph-name="U.alt2" unicode="&#xf02e;" horiz-adv-x="3459" 
d="M2924 1434h438v-717q0 -175 -42 -307.5t-114.5 -217t-180.5 -137.5t-229 -74t-271 -21h-1592q-151 0 -272 21t-229 74t-180 137.5t-114 217t-42 307.5v717h438v-717q0 -94 19 -164t52 -114t84.5 -71.5t109.5 -38t134 -10.5h1592q95 0 164 18t124 61t83 122.5t28 196.5
v717z" />
    <glyph glyph-name="V.alt2" unicode="&#xf02f;" horiz-adv-x="3473" 
d="M2930 1434h558l-1553 -1434h-398l-1553 1434h557l1195 -1103z" />
    <glyph glyph-name="W.alt2" unicode="&#xf030;" horiz-adv-x="4288" 
d="M3817 1434h478l-876 -1434h-598l-677 1099l-677 -1099h-597l-876 1434h478l721 -1181l712 1181h478l712 -1181z" />
    <glyph glyph-name="X.alt2" unicode="&#xf031;" horiz-adv-x="3430" 
d="M3427 1434l-1354 -717l1354 -717h-717l-996 527l-995 -527h-717l1354 717l-1354 717h717l995 -527l996 527h717z" />
    <glyph glyph-name="Y.alt2" unicode="&#xf032;" horiz-adv-x="3305" 
d="M2727 1434h598l-1454 -1069v-365h-438v365l-1453 1069h597l1075 -789z" />
    <glyph glyph-name="Z.alt2" unicode="&#xf033;" horiz-adv-x="3334" 
d="M3260 1434v-359l-2151 -717h2151v-358h-3186v358l2110 717h-2110v359h3186z" />
    </font>
</defs>
</svg>
