<?xml version="1.0" standalone="no"?>
<!DOCTYPE svg PUBLIC "-//W3C//DTD SVG 1.1//EN" "http://www.w3.org/Graphics/SVG/1.1/DTD/svg11.dtd" >
<svg xmlns="http://www.w3.org/2000/svg" xmlns:xlink="http://www.w3.org/1999/xlink" version="1.1">
<metadata>
Created by FontForge 20170731 at Wed Dec 16 17:25:45 2020
 By Aleksey,,,
TypeJuice(c) 2020
</metadata>
<defs>
<font id="JoyrideSTDItalic" horiz-adv-x="1888" >
  <font-face 
    font-family="Joyride STD Italic"
    font-weight="400"
    font-style="italic"
    font-stretch="normal"
    units-per-em="2048"
    panose-1="0 0 0 0 0 0 0 0 0 0"
    ascent="1638"
    descent="-410"
    x-height="1035"
    cap-height="1434"
    bbox="-480 -518.625 4422 1961"
    underline-thickness="102"
    underline-position="-409"
    unicode-range="U+000A-F033"
  />
<missing-glyph horiz-adv-x="1079" 
d="M102 1434h875v-1434h-875v1434zM160 1393l379 -633l381 633h-760zM514 717l-369 614v-1231zM541 674l-379 -631h758zM565 717l371 -621v1239z" />
    <glyph glyph-name=".notdef" horiz-adv-x="1079" 
d="M102 1434h875v-1434h-875v1434zM160 1393l379 -633l381 633h-760zM514 717l-369 614v-1231zM541 674l-379 -631h758zM565 717l371 -621v1239z" />
    <glyph glyph-name=".null" horiz-adv-x="0" 
 />
    <glyph glyph-name=".null" horiz-adv-x="0" 
 />
    <glyph glyph-name="nonmarkingreturn" horiz-adv-x="682" 
 />
    <glyph glyph-name="controlLF" unicode="&#xa;" horiz-adv-x="0" 
 />
    <glyph glyph-name="controlCR" unicode="&#xd;" horiz-adv-x="0" 
 />
    <glyph glyph-name="space" unicode=" " horiz-adv-x="1028" 
 />
    <glyph glyph-name="exclam" unicode="!" horiz-adv-x="679" 
d="M247 1434h438l-151 -861h-438zM-6 -1l61 345h438l-61 -345h-438z" />
    <glyph glyph-name="quotedbl" unicode="&#x22;" horiz-adv-x="964" 
d="M134 1089l61 345h344l-61 -345l-169 -275h-103zM677 1434h344l-61 -345l-169 -275h-103l-72 275z" />
    <glyph glyph-name="numbersign" unicode="#" horiz-adv-x="1644" 
d="M1560 838h-251l-43 -244h251l-61 -344h-251l-44 -251h-344l44 251h-243l-45 -251h-344l45 251h-251l60 344h251l43 244h-251l61 344h251l44 250h344l-44 -250h244l44 250h344l-44 -250h251zM922 594l43 244h-244l-43 -244h244z" />
    <glyph glyph-name="dollar" unicode="$" horiz-adv-x="1841" 
d="M1626 1378q89 -54 137 -150.5t23 -240.5l-7 -43h-431l8 43q10 56 -37.5 89t-153.5 46l-42 -234q124 -7 211.5 -22t161.5 -44t120 -78t70 -120q23 -69 4 -181q-18 -108 -68 -190q-70 -117 -199 -187q-164 -89 -464 -107l-28 -162h-344l28 162q-274 17 -400 92
q-89 54 -137 150.5t-23 240.5l7 43h431l-8 -43q-10 -55 37.5 -88.5t154.5 -46.5l41 235q-125 7 -212 21.5t-161 43.5t-120 78t-70 120q-23 69 -4 181q18 108 68 190q71 118 199 188q164 89 464 107l28 162h345l-29 -163q274 -17 400 -92zM782 903l39 222
q-116 -10 -171.5 -38.5t-65.5 -84.5q-9 -53 36.5 -72.5t161.5 -26.5zM1257 428q9 53 -35.5 72t-161.5 26l-40 -222q115 10 171 39t66 85z" />
    <glyph glyph-name="percent" unicode="%" horiz-adv-x="2271" 
d="M2134 414q13 -55 3 -121q-32 -182 -206 -270q-70 -35 -138.5 -50.5t-209.5 -15.5q-145 0 -211.5 16.5t-131.5 60.5q-73 48 -92 129q-13 54 -3 120q32 182 206 270q70 36 139 51.5t210 15.5q145 0 211 -16.5t131 -60.5q73 -48 92 -129zM1840 293q8 48 -44.5 68.5
t-137.5 20.5q-81 0 -144.5 -25.5t-71.5 -73.5t44.5 -68.5t137.5 -20.5q81 0 144.5 25.5t71.5 73.5zM920 881q-71 -36 -139 -51.5t-209 -15.5q-145 0 -211.5 16.5t-131.5 60.5q-73 48 -92 129q-13 55 -3 121q32 182 206 270q70 35 139 50.5t210 15.5q145 0 211.5 -16.5
t131.5 -60.5q73 -48 92 -129q13 -52 2 -120q-32 -182 -206 -270zM431 1141q-8 -48 45 -68.5t138 -20.5q81 0 144 25.5t71 73.5t-44.5 68.5t-137.5 20.5q-81 0 -144.5 -25.5t-71.5 -73.5zM1563 1434h423l-1272 -1434h-422z" />
    <glyph glyph-name="ampersand" unicode="&#x26;" horiz-adv-x="2457" 
d="M2321 358q-40 -227 -179 -346l102 -81l-296 -340l-325 257q-101 -7 -230 -7h-637q-82 0 -149.5 2.5t-134.5 9t-120.5 17.5t-104 27t-88 38.5t-69 51.5t-51 66.5t-30.5 82.5t-10 101t12 121q36 205 147 317t300 158q-30 88 -2 242q19 108 58.5 190.5t102 139t137 94
t177 58t209 28.5t244.5 8q81 0 149 -2.5t135 -9t120.5 -17.5t104 -27t88 -38.5t69 -52t51 -66.5t30.5 -82.5t10 -101.5t-12 -121h-438q7 39 0.5 67t-33 45t-51 27t-80.5 14t-92.5 5t-114.5 1h-70t-63 -1t-60 -3t-52 -6t-48 -10t-39 -14.5t-35.5 -20t-26 -26.5t-21 -34.5
t-11.5 -43.5q-2 -20 -2.5 -36.5t15 -40t49.5 -51.5q15 -13 873 -689q42 35 54 100l39 236h440zM819 199h358l-404 318q-76 -1 -125.5 -7t-94.5 -22.5t-70 -48.5t-34 -81q-7 -39 -1 -67t32.5 -45t51 -27t80.5 -14t92.5 -5t114.5 -1z" />
    <glyph glyph-name="quotesingle" unicode="'" horiz-adv-x="503" 
d="M205 1434h344l-61 -345l-169 -275h-103l-72 275z" />
    <glyph glyph-name="parenleft" unicode="(" horiz-adv-x="778" 
d="M869 1443l1 1l-1 -1q-15 -12 -32.5 -27t-62.5 -60.5t-85 -96.5q-190 -243 -242 -542q-54 -309 56 -555q50 -112 110 -172l-262 -268q-14 12 -34 34t-63 86.5t-76 137.5q-64 143 -87 309q-27 205 12 428q39 222 139 428q80 164 196 309q37 46 77 89t69 70t57.5 51.5
t40.5 33t20 14.5z" />
    <glyph glyph-name="parenright" unicode=")" horiz-adv-x="776" 
d="M686 1145q28 -208 -11 -428q-39 -222 -139 -428q-78 -161 -197 -309q-59 -73 -124.5 -137.5t-93 -86t-45.5 -34.5l-168 268l3 2q3 3 8.5 7t13 10.5t17.5 15t21 19t24 23.5t26.5 27.5t28.5 32t30 35.5q197 247 251 555q53 301 -51 542q-52 121 -116 185l1 -1l262 269
q13 -12 33.5 -34t63 -86.5t75.5 -137.5q64 -143 87 -309z" />
    <glyph glyph-name="asterisk" unicode="*" horiz-adv-x="714" 
d="M736 1128l-132 -42l81 -113l-173 -126l-82 112l-82 -112l-173 126l81 113l-132 42l67 205l132 -43v139h215v-139l131 43z" />
    <glyph glyph-name="plus" unicode="+" horiz-adv-x="1286" 
d="M845 889h401l-60 -344h-402l-71 -402h-344l71 402h-402l61 344h401l71 402h345z" />
    <glyph glyph-name="comma" unicode="," horiz-adv-x="534" 
d="M11 405h402l-71 -402l-257 -321h-141l157 321h-160z" />
    <glyph glyph-name="hyphen" unicode="-" horiz-adv-x="1275" 
d="M95 889h1147l-60 -344h-1148z" />
    <glyph glyph-name="period" unicode="." horiz-adv-x="536" 
d="M12 402h402l-71 -402h-402z" />
    <glyph glyph-name="slash" unicode="/" horiz-adv-x="1939" 
d="M1394 1434h423l-1272 -1435h-422z" />
    <glyph glyph-name="zero" unicode="0" horiz-adv-x="2021" 
d="M1145 1473q152 0 271.5 -17.5t217.5 -54.5t162 -96.5t103.5 -143.5t44 -194.5t-17.5 -249.5q-31 -177 -93 -307.5t-149 -216.5t-211 -138t-266.5 -73.5t-328.5 -21.5q-96 0 -177.5 6.5t-158 20.5t-139 36.5t-116.5 55.5t-93 76.5t-67 100t-41 125t-11 153t19 183.5
q36 207 120.5 353t218.5 234.5t308 128.5t404 40zM572 717q-3 -14 -7 -47l806 382q-87 63 -289 63q-111 0 -191 -17.5t-147 -61.5t-109 -122.5t-63 -196.5zM1448 717q3 14 7 47l-804 -382q87 -63 290 -63q110 0 189.5 17.5t146 61.5t108.5 122.5t63 196.5z" />
    <glyph glyph-name="one" unicode="1" horiz-adv-x="872" 
d="M515 1434h358l-253 -1434h-438l162 916h-239l56 318q96 7 192 63t162 137z" />
    <glyph glyph-name="two" unicode="2" horiz-adv-x="1890" 
d="M910 518q-69 -8 -123 -16t-95.5 -14.5t-72 -15.5t-52 -14.5t-36 -16.5t-22.5 -16.5t-13.5 -20t-7.5 -21.5t-5 -25h1235l-63 -358h-1673l63 358q13 72 33.5 130t55 102.5t67 77t89.5 58.5t101 42.5t123 32.5t134.5 25t154.5 24q111 16 170 26q42 7 99 15t90 13t74 12
t64.5 15t46 19.5t34 27.5t15.5 37q7 36 -12 57.5t-81 30.5t-115 10.5t-172 1.5h-70t-63 -1t-60 -3t-52 -6t-48.5 -10t-39.5 -14.5t-35.5 -20t-26 -26.5t-21 -34.5t-11.5 -43.5h-438q16 93 49 166.5t77.5 127.5t108 93.5t134 64t162.5 39.5t185.5 20.5t211.5 5.5
q170 0 292 -11.5t224 -41t159 -80.5t80 -132t3 -193q-13 -72 -31 -126.5t-52 -99.5t-66.5 -76.5t-96.5 -58t-118 -43.5t-154.5 -35t-183 -29t-225.5 -29z" />
    <glyph glyph-name="three" unicode="3" horiz-adv-x="1912" 
d="M1862 1035q-22 -125 -82.5 -201t-161.5 -117q87 -41 120.5 -117.5t11.5 -201.5q-17 -94 -53 -164t-96 -118t-132.5 -79t-178 -47.5t-214.5 -23t-259 -6.5q-87 0 -159 2.5t-142 9t-125 17.5t-106 27t-88.5 38.5t-69 52t-50 66.5t-29 83t-9.5 101.5t13 120.5h438
q-7 -39 -0.5 -67t33.5 -45t52.5 -27t84 -14t97.5 -5t123 -1q210 0 316.5 24.5t119.5 94.5q5 32 -6 53t-37.5 33t-66.5 18.5t-92 9t-114 4.5q-51 1 -78 2h-199l56 318h199q221 8 250 11q130 12 167 62q14 20 19 47q4 25 -5 43.5t-33 31.5t-56.5 22t-81 13.5t-99.5 6.5t-118 2
h-83t-73.5 -1.5t-69 -4.5t-57 -8t-52 -13t-40 -20t-34.5 -28t-22 -37t-15 -47h-438q19 109 57 190.5t99.5 138.5t135.5 94t179.5 57.5t216 28.5t259.5 8q181 0 303 -9t229 -36t163 -75.5t79.5 -127t3.5 -190.5z" />
    <glyph glyph-name="four" unicode="4" horiz-adv-x="1720" 
d="M1635 1434l-162 -916h119l-63 -359h-119l-28 -159h-438l28 159h-996l71 400l1149 875h439zM1035 518l81 461l-606 -461h525z" />
    <glyph glyph-name="five" unicode="5" horiz-adv-x="1890" 
d="M1812 1075h-1195l-30 -168q191 49 408 49q102 0 185 -4t157.5 -12.5t132 -23t106 -34.5t81.5 -48t56.5 -63t33.5 -79t10 -97t-11 -117q-22 -123 -68 -211t-117 -148t-179.5 -94.5t-242.5 -49.5t-319 -15q-162 0 -281.5 12.5t-215.5 43t-154 80.5t-85 125t-20 177h498
q49 -79 321 -79q136 0 219 18.5t120 52.5t46 88q9 55 -14.5 88t-100 52t-214.5 19q-273 0 -349 -79h-502l154 876h1633z" />
    <glyph glyph-name="six" unicode="6" horiz-adv-x="1861" 
d="M1799 956h-439q2 43 -11 71.5t-36.5 46t-70.5 26.5t-99 12t-135 3q-94 0 -156 -6t-115.5 -23t-86 -48.5t-55.5 -80.5t-36 -121q68 28 177.5 42t336.5 14q354 0 518 -103.5t128 -310.5q-19 -106 -56 -184.5t-105 -143.5t-169 -105.5t-246.5 -62.5t-338.5 -22
q-171 0 -294.5 17t-211 56t-138 95.5t-72 144.5t-17.5 193.5t29 250.5q25 142 61.5 250t92 194t129 143.5t175 96t226.5 55.5t287 17q409 0 582 -118.5t146 -398.5zM917 597q-57 0 -85 -0.5t-76.5 -3t-74 -7.5t-59.5 -15t-52.5 -24.5t-34 -37t-20.5 -51.5q-6 -34 2 -58.5
t35.5 -39.5t52.5 -23.5t77.5 -12.5t85.5 -4.5t99 -0.5q56 0 84 0.5t76 3t73.5 7.5t59.5 15t52.5 24.5t34 37t20.5 51.5q6 34 -2 58.5t-35 39.5t-52.5 23.5t-77.5 12.5t-85 4.5t-98 0.5z" />
    <glyph glyph-name="seven" unicode="7" horiz-adv-x="1648" 
d="M200 1434h1513l-63 -359l-1185 -1075h-518l1185 1075h-995z" />
    <glyph glyph-name="eight" unicode="8" horiz-adv-x="1869" 
d="M1783 1015q-32 -181 -187 -267q159 -115 118 -350q-42 -238 -252.5 -338t-659.5 -100q-429 0 -615 102t-145 336t242 350q-126 88 -94 267q14 80 51 147t106 125.5t166.5 99t238 63.5t315.5 23q126 0 230.5 -12t181 -33.5t135.5 -53t94.5 -70.5t57 -85t23.5 -97t-6 -107z
M1287 458q9 52 -18.5 81t-111.5 43.5t-243 14.5q-160 0 -249 -14.5t-127.5 -43.5t-47.5 -81t19 -81t112 -43.5t244 -14.5q159 0 247.5 14.5t127 43.5t47.5 81zM1342 996q11 63 -62.5 91t-276.5 28q-201 0 -284 -28t-94 -91t62 -91.5t274 -28.5q203 0 286.5 28.5t94.5 91.5z
" />
    <glyph glyph-name="nine" unicode="9" horiz-adv-x="1861" 
d="M1057 1473q206 0 343 -25t226 -80.5t125 -143.5t39.5 -214t-29.5 -293q-38 -214 -103 -354.5t-180 -232.5t-280 -131t-407 -39q-409 0 -582.5 119t-146.5 399h440q-2 -43 11 -71.5t36.5 -46t70.5 -26.5t99 -12t135 -3q94 0 156 6t115.5 22.5t86 48.5t55.5 80.5t36 120.5
q-67 -27 -176.5 -41t-337.5 -14q-354 0 -518 103.5t-128 310.5q19 106 56 184.5t104.5 143.5t168.5 105.5t246.5 62t338.5 21.5zM1346 976q6 34 -2 58.5t-35.5 39.5t-52.5 23.5t-77.5 12.5t-85.5 4.5t-99 0.5q-49 0 -74 -0.5t-67.5 -2t-66 -5t-56 -10t-51 -16.5t-38.5 -24.5
t-30.5 -34.5t-15.5 -46q-6 -34 2 -58.5t35 -39.5t53 -24t77 -12.5t85 -4.5t98 -1q55 0 84.5 0.5t77 3t73.5 7.5t59.5 15.5t52 25t34 37t20.5 51.5z" />
    <glyph glyph-name="colon" unicode=":" horiz-adv-x="608" 
d="M166 1073h402l-71 -402h-402zM-23 2l71 402h402l-71 -402h-402z" />
    <glyph glyph-name="semicolon" unicode=";" horiz-adv-x="608" 
d="M167 1075h401l-71 -401h-401zM-23 3l71 402h402l-71 -402l-257 -321h-141l157 321h-161z" />
    <glyph glyph-name="less" unicode="&#x3c;" horiz-adv-x="903" 
d="M923 1434l-74 -421l-472 -294l367 -302l-75 -424l-626 516l74 422z" />
    <glyph glyph-name="equal" unicode="=" horiz-adv-x="1349" 
d="M190 1218h1147l-61 -344h-1147zM13 215l61 344h1146l-60 -344h-1147z" />
    <glyph glyph-name="greater" unicode="&#x3e;" horiz-adv-x="903" 
d="M234 1434l629 -503l-74 -422l-809 -516l75 424l473 302l-368 294z" />
    <glyph glyph-name="question" unicode="?" horiz-adv-x="1761" 
d="M548 0l56 319h438l-56 -319h-438zM1004 1473q83 0 152.5 -2.5t136 -8.5t120 -16.5t102 -25t84.5 -34.5t66 -46.5t48.5 -59t28.5 -72.5t10 -88.5t-10 -104.5q-8 -44 -16 -78.5t-21 -65t-24.5 -53.5t-33 -45t-39 -37.5t-50 -32.5t-58.5 -28t-72.5 -27t-83.5 -27t-99 -29
q-11 -3 -36 -10t-32 -9.5t-25 -8t-22.5 -9t-16.5 -10t-15.5 -13t-10.5 -16t-10 -21t-7 -25.5t-7 -32h-441q13 75 22 111t31 89t55 81t90 64t140.5 63t201.5 54q44 10 70.5 21t40.5 26.5t18.5 29t9.5 38.5q11 62 -58 82q-58 18 -262 18h-40h-77t-67 -1.5t-62.5 -4.5t-52 -8
t-47 -13t-36 -20t-31 -28t-20 -37t-14.5 -47h-438q16 93 47.5 166.5t74.5 127.5t104.5 93.5t130 64t158.5 39.5t182.5 20.5t210.5 5.5z" />
    <glyph glyph-name="at" unicode="@" horiz-adv-x="1783" 
d="M1298 1473q140 0 246.5 -69t155 -187.5t23.5 -258.5l-85 -482q-21 -119 -120.5 -203.5t-218.5 -84.5q-107 0 -175.5 70t-66.5 174q-30 -19 -37 -22q-114 -62 -283 -62q-85 0 -152.5 23.5t-113 69t-63.5 117t-2 161.5q32 179 159.5 275t302.5 96q169 0 261 -62l6 37h272h6
l-104 -589q-3 -17 6.5 -29t26.5 -12t31 12t17 29l85 482q19 111 -45.5 189.5t-175.5 78.5h-541q-111 0 -203 -78.5t-112 -189.5l-85 -482q-19 -111 45.5 -189.5t175.5 -78.5h453l-43 -248h-454q-105 0 -193 41t-145 110t-81 164.5t-6 200.5l85 482q25 140 115 258.5
t221 187.5t271 69h541zM1074 719q30 173 -167 173q-198 0 -229 -173t168 -173q91 0 153 48.5t75 124.5z" />
    <glyph glyph-name="A" unicode="A" 
d="M1282 0l-50 159h-771l-106 -159h-480l956 1434h479l450 -1434h-478zM1117 518l-134 427l-286 -427h420z" />
    <glyph glyph-name="B" unicode="B" horiz-adv-x="1820" 
d="M1585 753q73 -57 104.5 -146.5t13.5 -193.5q-30 -171 -172 -292t-313 -121h-1220l253 1434h1140q171 0 270.5 -121t69.5 -292q-27 -152 -146 -268zM1203 1075h-577l-36 -199h578q41 0 75 29.5t42 70.5q7 41 -17 70t-65 29zM1156 358q41 0 75 29.5t42 70.5q7 41 -17 70.5
t-65 29.5h-657l-35 -200h657z" />
    <glyph glyph-name="C" unicode="C" horiz-adv-x="1959" 
d="M1380 558h487q-41 -139 -107 -241.5t-152.5 -170.5t-203.5 -109.5t-249 -59t-300 -17.5q-96 0 -177.5 6.5t-158 20.5t-139 36.5t-116 55.5t-93 76.5t-67 100t-40.5 125t-11 153t19 183.5q36 207 120 353t218.5 234.5t308 128.5t403.5 40q206 0 354.5 -32t252.5 -102
t152 -185.5t41 -277.5h-485q-10 134 -103 186.5t-275 52.5q-111 0 -191 -17.5t-146.5 -61.5t-108.5 -122.5t-63 -196.5q-11 -80 -11.5 -140.5t20 -104.5t50 -73.5t78 -47t104 -25t128.5 -7.5q179 0 291 53t170 186z" />
    <glyph glyph-name="D" unicode="D" horiz-adv-x="1906" 
d="M835 0h-836l252 1434h837q145 0 259.5 -16.5t208 -52t155 -92t99.5 -136t42.5 -184t-16.5 -236.5q-25 -141 -69 -250t-109 -188t-145.5 -133t-187 -86t-224.5 -46t-266 -14zM500 358h398q86 0 150 8t125.5 31.5t103.5 62.5t74 103.5t48 153.5q10 56 10.5 102t-9 81.5
t-25.5 62.5t-42.5 46t-57 32t-71.5 20.5t-84 10.5t-96 3h-398z" />
    <glyph glyph-name="E" unicode="E" horiz-adv-x="1695" 
d="M500 358h1035l-63 -358h-1473l252 1434h1474l-63 -359h-1036l-31 -179h955l-63 -358h-956z" />
    <glyph glyph-name="F" unicode="F" horiz-adv-x="1613" 
d="M437 0h-438l252 1434h1434l-63 -359h-996l-31 -179h915l-63 -358h-916z" />
    <glyph glyph-name="G" unicode="G" horiz-adv-x="1998" 
d="M1035 757h876l-134 -757h-318l11 63q-222 -103 -615 -103q-96 0 -177.5 6.5t-158 20.5t-139 36.5t-116 55.5t-93 76.5t-67 100t-40.5 125t-11 153t19 183.5q36 207 120 353t218.5 234.5t308 128.5t403.5 40q402 0 601.5 -130t199.5 -427h-491q-21 111 -113 155t-260 44
q-111 0 -191 -17.5t-146.5 -61.5t-108.5 -122.5t-63 -196.5q-11 -80 -11.5 -140.5t20 -104.5t50 -73.5t78 -47t104 -25t128.5 -7.5q132 0 225.5 27t157.5 92h-324z" />
    <glyph glyph-name="H" unicode="H" horiz-adv-x="1923" 
d="M1486 1434h438l-253 -1434h-438l95 538h-797l-94 -538h-438l252 1434h438l-94 -538h796z" />
    <glyph glyph-name="I" unicode="I" horiz-adv-x="688" 
d="M689 1434l-252 -1434h-438l252 1434h438z" />
    <glyph glyph-name="J" unicode="J" horiz-adv-x="1728" 
d="M1755 1434l-126 -717q-31 -174 -96 -307.5t-150 -217.5t-198 -137t-230 -74t-255 -21q-85 0 -159 8t-144.5 26t-127.5 48t-105 72.5t-80 101t-50 131.5t-17.5 166.5t19.5 203.5h438q-12 -67 -12 -122.5t9.5 -96t29.5 -72t46.5 -51.5t61.5 -33t72 -18t82 -5
q63 0 115.5 10.5t104 38t91 71.5t70.5 114.5t47 163.5l126 717h438z" />
    <glyph glyph-name="K" unicode="K" horiz-adv-x="1726" 
d="M1037 810l554 -810h-557l-356 519l-175 -142l-66 -377h-438l252 1434h438l-93 -529l651 529h557z" />
    <glyph glyph-name="L" unicode="L" horiz-adv-x="1583" 
d="M500 358h995l-63 -358h-1433l252 1434h438z" />
    <glyph glyph-name="M" unicode="M" horiz-adv-x="2320" 
d="M1765 1434h557l-253 -1434h-438l141 796l-539 -796h-398l-258 796l-140 -796h-438l252 1434h558l309 -956z" />
    <glyph glyph-name="N" unicode="N" horiz-adv-x="1961" 
d="M1526 1434h438l-253 -1434h-518l-606 851l-150 -851h-438l252 1434h478l639 -896z" />
    <glyph glyph-name="O" unicode="O" horiz-adv-x="1976" 
d="M1904 717q-31 -177 -93 -307.5t-149 -216.5t-211.5 -138t-267 -73.5t-328.5 -21.5q-96 0 -177.5 6.5t-158 20.5t-139 36.5t-116 55.5t-93 76.5t-67 100t-40.5 125t-11 153t19 183.5q36 207 120 353t218.5 234.5t308 128.5t403.5 40q130 0 236 -12.5t196.5 -39.5
t156.5 -69.5t114.5 -102.5t71 -138t26.5 -176.5t-19 -217.5zM1426 717q12 68 12 122.5t-10.5 96t-33.5 72t-54 51t-75 33t-93.5 18t-112.5 5.5q-111 0 -191 -17.5t-146.5 -61.5t-108.5 -122.5t-63 -196.5q-11 -80 -11.5 -140.5t20 -104.5t50 -73.5t78 -47t104 -25
t128.5 -7.5q110 0 189.5 17.5t146 61.5t108.5 122.5t63 196.5z" />
    <glyph glyph-name="P" unicode="P" horiz-adv-x="1685" 
d="M1227 1434q109 0 201 -43t151.5 -115t84.5 -171.5t6 -208.5q-26 -146 -120 -270t-230.5 -196t-282.5 -72h-537l-63 -358h-438l252 1434h976zM1021 717q74 0 136 52.5t75 126.5t-30.5 126.5t-117.5 52.5h-458l-63 -358h458z" />
    <glyph glyph-name="Q" unicode="Q" horiz-adv-x="1984" 
d="M1904 717q-57 -323 -216 -497l73 -88l-281 -238l-108 131q-199 -65 -517 -65q-96 0 -177.5 6.5t-158 20.5t-139 36.5t-116 55.5t-93 76.5t-67 100t-40.5 125t-11 153t19 183.5q36 207 120 353t218.5 234.5t308 128.5t403.5 40q130 0 236 -12.5t196.5 -39.5t156.5 -69.5
t114.5 -102.5t71 -138t26.5 -176.5t-19 -217.5zM919 319q116 0 195 19l-97 120l281 239l92 -115q22 58 36 135q12 68 12 122.5t-10.5 96t-33.5 72t-54 51t-75 33t-93.5 18t-112.5 5.5q-111 0 -191 -17.5t-146.5 -61.5t-108.5 -122.5t-63 -196.5q-11 -80 -11.5 -140.5
t20 -104.5t50 -73.5t78 -47t104 -25t128.5 -7.5z" />
    <glyph glyph-name="R" unicode="R" horiz-adv-x="1837" 
d="M1153 0l-126 358h-527l-63 -358h-438l252 1434h1095q109 0 201 -43t151.5 -115t84.5 -171.5t6 -208.5q-24 -133 -104.5 -248t-198.5 -190l161 -458h-494zM626 1075l-63 -358h577q74 0 136 52.5t75 126.5t-30 126.5t-117 52.5h-578z" />
    <glyph glyph-name="S" unicode="S" horiz-adv-x="1906" 
d="M991 896q183 -6 295.5 -16t228.5 -38t172.5 -76t84.5 -129.5t7 -198.5h-1q-15 -84 -47.5 -151.5t-79 -117.5t-112.5 -86.5t-139.5 -60t-169 -37.5t-193 -19.5t-218.5 -5.5q-88 0 -160 2.5t-143 9t-127.5 17.5t-109 27t-91.5 38.5t-71.5 52t-52.5 66.5t-31.5 82.5
t-10.5 101.5t12 121h438q-7 -39 1 -67t38 -45t57.5 -27t89 -14t101 -5t123.5 -1q62 0 92 0.5t81.5 1.5t77 4t62.5 8.5t56 14.5t40 21t31.5 29.5t14.5 39.5q6 31 -2 53.5t-30 37t-51 23.5t-73 13.5t-87.5 6.5t-102.5 4q-45 1 -69 2h-1q-182 6 -293.5 16t-224 37t-167.5 72.5
t-81 123.5t-6 189q17 93 55 165t99.5 122t137.5 83.5t179.5 52.5t213.5 27t251 8q87 0 159 -2.5t142 -9t125 -17.5t106 -27t88.5 -38.5t69 -52t50 -66.5t29 -83t9.5 -101.5t-13 -120.5h-438q7 39 0.5 67t-34 45t-52.5 27t-84 14t-98 5t-123 1h-7q-81 0 -118.5 -0.5t-96 -3
t-86 -9t-59 -17t-46 -28t-18.5 -41.5q-5 -32 6.5 -53t39 -33t67.5 -18.5t93 -9t114 -4.5q52 -1 79 -2h1h1z" />
    <glyph glyph-name="T" unicode="T" horiz-adv-x="1642" 
d="M1743 1434l-63 -359h-578l-189 -1075h-438l189 1075h-577l63 359h1593z" />
    <glyph glyph-name="U" unicode="U" horiz-adv-x="1869" 
d="M98 717l127 717h438l-126 -717q-12 -67 -12 -122t10.5 -96.5t32 -72.5t50 -51t68 -32.5t83 -18t96.5 -5.5q95 0 167 18t134.5 61t104.5 122.5t62 196.5l126 717h438l-126 -717q-31 -175 -96 -307.5t-152 -217t-204.5 -137.5t-242 -74t-274.5 -21q-93 0 -172.5 8
t-154.5 26t-134.5 48t-109.5 72.5t-83 101t-51.5 131.5t-18 166.5t19.5 203.5z" />
    <glyph glyph-name="V" unicode="V" horiz-adv-x="1828" 
d="M1479 1434h478l-970 -1434h-398l-464 1434h478l283 -876z" />
    <glyph glyph-name="W" unicode="W" horiz-adv-x="2492" 
d="M2128 1434h478l-730 -1434h-478l-132 836l-426 -836h-478l-225 1434h478l134 -855l436 855h374l134 -855z" />
    <glyph glyph-name="X" unicode="X" horiz-adv-x="1857" 
d="M1970 1434l-763 -717l511 -717h-558l-287 403l-430 -403h-557l763 717l-510 717h557l287 -404l430 404h557z" />
    <glyph glyph-name="Y" unicode="Y" horiz-adv-x="1732" 
d="M1869 1434l-818 -910l-92 -524h-438l92 524l-496 910h517l271 -497l446 497h518z" />
    <glyph glyph-name="Z" unicode="Z" horiz-adv-x="1746" 
d="M204 1434h1593l-62 -351l-1033 -725h906l-64 -358h-1593l62 350l1034 725h-906z" />
    <glyph glyph-name="bracketleft" unicode="[" horiz-adv-x="774" 
d="M797 1262h-230l-192 -1091h229l-60 -344h-574l38 215l23 129l192 1091l38 215l23 129h573z" />
    <glyph glyph-name="backslash" unicode="\" horiz-adv-x="1433" 
d="M545 1434l766 -1435h-422l-766 1435h422z" />
    <glyph glyph-name="bracketright" unicode="]" horiz-adv-x="774" 
d="M230 1605h574l-38 -215l-23 -129l-192 -1091l-38 -215l-23 -129h-573l60 344h230l192 1091h-229z" />
    <glyph glyph-name="asciicircum" unicode="^" horiz-adv-x="1501" 
d="M1095 1434l375 -718h-420l-220 420l-376 -420h-425l643 718h423z" />
    <glyph glyph-name="underscore" unicode="_" horiz-adv-x="1454" 
d="M184 -2h1147l-60 -344h-1148z" />
    <glyph glyph-name="grave" unicode="`" horiz-adv-x="571" 
d="M486 1431l126 -258h-229l-242 258h345z" />
    <glyph glyph-name="a" unicode="a" horiz-adv-x="1595" 
d="M878 1075q101 0 179 -4t148 -14.5t119.5 -27.5t90 -43.5t64 -62t36 -83.5t11 -108t-14.5 -135l-106 -597h-398l-26 80q-104 -62 -211 -91t-248 -29q-91 0 -164.5 8t-144.5 31t-116 59.5t-66 98t-7 142.5q31 177 222 257.5t555 80.5q118 0 182.5 8.5t84 21t23.5 34.5
q7 39 -83.5 59.5t-217.5 16.5q-68 -2 -130 -7.5t-102 -10.5t-94 -17t-74.5 -17.5t-77 -22t-71.5 -20.5l-41 275q153 52 340.5 85t337.5 33zM466 319q-9 -52 72 -74q99 -27 236 5q167 39 241 137q18 24 29 51q-71 -9 -153.5 -14.5t-137.5 -7t-111 -7t-90 -14t-57.5 -27.5
t-28.5 -49z" />
    <glyph glyph-name="b" unicode="b" horiz-adv-x="1656" 
d="M1047 1075q69 0 129 -6t117 -19.5t102 -35.5t84.5 -53.5t63.5 -74t40.5 -97t15 -122t-13.5 -149.5q-23 -128 -72.5 -226t-116 -160t-156 -101.5t-183.5 -55t-207 -15.5q-78 0 -145.5 12.5t-108.5 30t-70 35t-41 30.5l-12 12l-54 -80h-398l252 1434h439l-85 -478
q6 5 17 13t50.5 28.5t84 36t117.5 28.5t151 13zM1147 518q13 72 -1.5 127t-50.5 87t-85.5 48t-111.5 16t-117 -16t-103 -48t-81.5 -87t-46.5 -127t1.5 -127t51 -87.5t86 -48.5t111.5 -16q130 0 226 69t121 210z" />
    <glyph glyph-name="c" unicode="c" horiz-adv-x="1597" 
d="M856 796q-152 0 -237 -65.5t-111 -212.5t35.5 -213t213.5 -66q233 0 311 159h445q-76 -228 -276.5 -333t-528.5 -105q-368 0 -528.5 133t-109.5 425t259 424.5t576 132.5q328 0 491 -105t159 -333h-445q-12 83 -74.5 121t-179.5 38z" />
    <glyph glyph-name="d" unicode="d" horiz-adv-x="1658" 
d="M1269 1434h438l-253 -1434h-398l-26 80q-6 -5 -17 -13t-50 -28.5t-84 -36.5t-117.5 -29t-150.5 -13q-69 0 -129 6t-117 19.5t-102 35.5t-84.5 54t-64 74t-41 97t-15 122.5t13.5 149.5q23 128 72.5 225.5t116 160t156 101.5t183.5 54.5t207 15.5q78 0 145.5 -12.5
t108.5 -29.5t70.5 -34.5t41.5 -30.5l12 -12zM1107 518q13 72 -1.5 127t-50.5 87t-85.5 48t-111.5 16t-117 -16t-103 -48t-81.5 -87t-46.5 -127t1.5 -127t51 -87.5t86 -48.5t111.5 -16q130 0 226 69t121 210z" />
    <glyph glyph-name="e" unicode="e" horiz-adv-x="1603" 
d="M905 1075q370 0 530.5 -128.5t109.5 -419.5q-7 -41 -18 -79h-1026q-3 -106 60 -157.5t198 -51.5q64 0 118.5 5.5t88 12.5t66.5 20.5t46.5 21t37 23t28.5 18.5l254 -165q-128 -117 -283.5 -166t-405.5 -49q-366 0 -528 137t-110 430q51 291 257.5 419.5t576.5 128.5z
M544 647h570q-9 84 -66.5 116.5t-192.5 32.5t-204 -32.5t-107 -116.5z" />
    <glyph glyph-name="f" unicode="f" horiz-adv-x="1118" 
d="M1313 1155q-145 22 -237 30.5t-157 6t-100.5 -23t-53.5 -50.5t-30 -83h438l-50 -278h-438l-133 -757h-438l133 757h-159l49 278h160q21 103 52.5 177t85 135.5t132 97t191 53t263.5 11t348 -35.5z" />
    <glyph glyph-name="g" unicode="g" horiz-adv-x="1656" 
d="M1197 1035h438l-161 -916q-39 -224 -136 -361.5t-276 -206.5t-457 -69q-175 0 -299.5 28t-195 81t-102.5 121.5t-32 157.5l408 54q0 -3 1.5 -16t2 -19.5t4.5 -20.5t9 -22.5t15.5 -21t23.5 -20.5t33.5 -17t45.5 -14t59.5 -8.5t75.5 -3.5q181 0 261.5 67t113.5 252l7 39
q-6 -5 -17 -13t-50 -28.5t-84 -36t-117.5 -28.5t-150.5 -13q-69 0 -129 6t-117 19.5t-102.5 34.5t-85 51.5t-64.5 71.5t-42 93t-16.5 116t12.5 142q22 123 71 218t115.5 155.5t155.5 98.5t184 53.5t207 15.5q78 0 145.5 -12.5t108.5 -29.5t70 -34.5t41 -30.5l12 -12z
M1109 534q24 139 -48 200.5t-205 61.5q-63 0 -117 -13.5t-101.5 -42.5t-80.5 -81.5t-46 -124.5q-45 -255 254 -255t344 255z" />
    <glyph glyph-name="h" unicode="h" horiz-adv-x="1599" 
d="M1027 1075q577 0 479 -557l-92 -518h-438l92 518q26 147 -21 212.5t-169 65.5q-127 0 -215 -68t-113 -210l-91 -518h-438l252 1434h439l-85 -478q6 5 17 13t49 28.5t81 36t111.5 28.5t141.5 13z" />
    <glyph glyph-name="i" unicode="i" horiz-adv-x="663" 
d="M21 0l182 1035h438l-182 -1035h-438zM273 1434h439l-50 -279h-438z" />
    <glyph glyph-name="j" unicode="j" horiz-adv-x="671" 
d="M37 40l176 995h438l-169 -955q-9 -53 -18 -93t-29 -101t-44 -106t-65 -98t-90 -88.5t-120.5 -65t-156 -39t-197 -0.5t-242.5 41l96 318q78 -16 140 -19t103 -0.5t73 23t47.5 32t29.5 47t16.5 47.5t9.5 53q1 6 2 9zM283 1434h438l-49 -279h-438z" />
    <glyph glyph-name="k" unicode="k" horiz-adv-x="1400" 
d="M1435 1035l-548 -454l408 -581h-492l-227 328l-86 -69l-45 -259h-424l252 1434h424l-121 -688l367 289h492z" />
    <glyph glyph-name="l" unicode="l" horiz-adv-x="663" 
d="M273 1434h439l-253 -1434h-438z" />
    <glyph glyph-name="m" unicode="m" horiz-adv-x="2476" 
d="M1962 1075q271 0 371.5 -129.5t48.5 -425.5l-91 -518h-438l91 518q26 147 -21.5 213t-168.5 66t-191.5 -66t-96.5 -213l-91 -520h-438l91 518q26 147 -21 212.5t-169 65.5t-192 -65.5t-96 -212.5l-91 -518h-438l182 1035h438l-14 -79q7 5 19 13t54 28.5t87.5 36t116 28.5
t143.5 13q151 0 240.5 -39t128.5 -124q202 163 546 163z" />
    <glyph glyph-name="n" unicode="n" horiz-adv-x="1677" 
d="M1086 1075q282 0 415.5 -135t83.5 -422l-91 -518h-438l91 518q13 72 -1.5 127t-50.5 87t-85.5 48t-111.5 16t-117 -16t-103 -48t-81.5 -87t-46.5 -127l-91 -518h-438l182 1035h438l-14 -79q7 5 21 13t60 28.5t96 36t127 28.5t155 13z" />
    <glyph glyph-name="o" unicode="o" horiz-adv-x="1611" 
d="M905 1075q368 0 528.5 -132.5t109.5 -424.5t-259 -425t-576 -133t-528.5 133t-109.5 425t259 424.5t576 132.5zM1105 518q26 147 -35.5 212.5t-213.5 65.5t-237 -65.5t-111 -212.5t35.5 -213t213.5 -66t237 66t111 213z" />
    <glyph glyph-name="p" unicode="p" horiz-adv-x="1660" 
d="M1049 1075q69 0 129 -6t117 -19.5t102 -35.5t84.5 -53.5t64 -74t41 -97t15 -122t-13.5 -149.5q-23 -128 -72.5 -226t-116 -160t-156 -101.5t-183.5 -55t-207 -15.5q-78 0 -145.5 12.5t-108.5 30t-70 35t-41 30.5l-12 12l-99 -558h-438l267 1513h438l-14 -79q6 5 17 13
t50 28.5t84 36t117.5 28.5t150.5 13zM1150 518q13 72 -1.5 127t-50.5 87t-85.5 48t-111.5 16t-117 -16t-103 -48t-81.5 -87t-46.5 -127t1.5 -127t50.5 -87.5t85.5 -48.5t111.5 -16q83 0 153 27t124 92t71 160z" />
    <glyph glyph-name="q" unicode="q" horiz-adv-x="1656" 
d="M1199 1035h438l-267 -1513h-438l98 558q-6 -5 -17 -13t-50 -28.5t-84 -36.5t-117.5 -29t-150.5 -13q-69 0 -129 6t-117 19.5t-102 35.5t-84.5 54t-64 74t-41 97t-15 122.5t13.5 149.5q23 128 72.5 225.5t116 160t156 101.5t183.5 54.5t207 15.5q78 0 145.5 -12.5
t108.5 -29.5t70.5 -34.5t41.5 -30.5l12 -12zM1107 518q13 72 -1.5 127t-50.5 87t-85.5 48t-111.5 16t-117 -16t-103 -48t-81.5 -87t-46.5 -127t1.5 -127t51 -87.5t86 -48.5t111.5 -16q130 0 226 69t121 210z" />
    <glyph glyph-name="r" unicode="r" horiz-adv-x="1267" 
d="M1007 1075q86 0 174.5 -12.5t136.5 -27.5l-56 -318q-9 2 -46.5 10.5t-46.5 10.5t-40.5 7.5t-51.5 7t-54 3t-72 1.5q-54 0 -100 -6t-100 -26t-94 -53.5t-73.5 -93.5t-47.5 -140l-77 -438h-438l182 1035h438l-14 -79q4 5 12.5 13t41 28.5t72 36t108 28.5t146.5 13z" />
    <glyph glyph-name="s" unicode="s" horiz-adv-x="1550" 
d="M1486 717h-398q10 54 -69 70q-47 9 -196 9q-170 0 -226 -10.5t-65 -60.5q-7 -39 38 -53q49 -15 271 -15h37q238 0 367 -35.5t171 -107t20 -195.5q-25 -144 -98 -219t-226 -107.5t-437 -32.5q-107 0 -189.5 4t-151.5 13t-117.5 22.5t-85 35t-58 48t-31.5 62.5t-9.5 78
t9.5 96h418q-5 -30 4.5 -46.5t51 -23.5t79.5 -8.5t130 -1.5q169 0 225.5 11t65.5 61q7 40 -37 53q-46 15 -255 15h-54q-179 0 -291.5 19t-172.5 60t-75 105t1 154q13 76 39.5 129.5t78.5 99t133 72.5t202 42t287 15q208 0 337.5 -21.5t195 -65.5t82.5 -111.5t-1 -159.5z" />
    <glyph glyph-name="t" unicode="t" horiz-adv-x="1110" 
d="M683 757l-56 -319q-15 -87 3 -119t82 -32.5t179 17.5q71 10 113 15l-56 -319q-141 -25 -255 -34.5t-195 -4.5t-141 22.5t-97 43.5t-59 62t-29.5 75t-6 86t7.5 91t15 94q1 1 1 1.5v1.5l56 319h-159l49 278h159l57 319h438l-57 -319h359l-49 -278h-359z" />
    <glyph glyph-name="u" unicode="u" horiz-adv-x="1675" 
d="M1217 1035h438l-182 -1035h-399l-25 80q-7 -5 -21 -13t-60.5 -28.5t-96.5 -36.5t-127 -29t-155 -13q-137 0 -238.5 31t-171.5 98.5t-91 173.5t2 255l92 517h438l-92 -517q-13 -72 1.5 -127t51 -87.5t86 -48.5t111.5 -16q83 0 153 27t124 92t71 160z" />
    <glyph glyph-name="v" unicode="v" horiz-adv-x="1542" 
d="M1180 1035h438l-703 -1035h-472l-338 1035h438l207 -634z" />
    <glyph glyph-name="w" unicode="w" horiz-adv-x="2140" 
d="M1798 1035h409l-552 -1035h-438l-120 677l-358 -677h-438l-187 1035h409l111 -617l327 617h399l110 -617z" />
    <glyph glyph-name="x" unicode="x" horiz-adv-x="1476" 
d="M1547 1035l-569 -517l386 -518h-478l-193 259l-285 -259h-477l569 518l-387 517h478l193 -258l285 258h478z" />
    <glyph glyph-name="y" unicode="y" horiz-adv-x="1443" 
d="M1112 1035h410l-768 -1075q-17 -24 -50 -70q-53 -76 -79.5 -111.5t-73 -93t-78 -81.5t-81.5 -58.5t-97 -43t-110 -16t-136 3t-161 32.5l60 339q146 -32 182 -34q78 -6 135 43q36 31 79 91l101 141l-338 933h410l200 -552z" />
    <glyph glyph-name="z" unicode="z" horiz-adv-x="1513" 
d="M1524 1035l-49 -278l-841 -478h757l-49 -279h-1354l49 279l841 478h-757l49 278h1354z" />
    <glyph glyph-name="braceleft" unicode="{" horiz-adv-x="765" 
d="M493 1525q76 83 172 127.5t200 44.5l-55 -315q-55 0 -97 -45q-72 -78 -103 -254l-16 -92q-28 -165 -133 -274q65 -108 36 -274l-16 -92q-31 -176 13 -254q26 -45 81 -45l-56 -316q-103 0 -183.5 44.5t-127.5 127.5q-93 164 -43 443l16 92q11 60 -4 82q-23 34 -122 34
l56 316q100 0 133 33q23 23 34 83l16 92q49 279 199 442z" />
    <glyph glyph-name="verticalbar" unicode="|" horiz-adv-x="595" 
d="M252 1434h345l-309 -1753h-345z" />
    <glyph glyph-name="braceright" unicode="}" horiz-adv-x="763" 
d="M589 908q22 -33 121 -33l-55 -316q-100 0 -134 -34q-23 -23 -34 -82l-16 -92q-50 -280 -199 -443q-76 -83 -172 -127.5t-200 -44.5l56 316q54 0 96 45q72 78 103 254l17 92q29 166 132 274q-65 108 -36 274l16 92q31 176 -13 254q-26 45 -81 45l56 315q103 0 183.5 -44.5
t127.5 -127.5q92 -164 43 -442l-16 -92q-11 -59 5 -83z" />
    <glyph glyph-name="asciitilde" unicode="~" horiz-adv-x="1462" 
d="M1212 925l201 -243q-108 -91 -217 -135q-103 -43 -211 -47h-10.5h-12h-9.5q-114 0 -299 50q-82 22 -126 30.5t-97 8.5t-95 -19t-88 -58l-201 243q102 87 214 133q100 40 209 45q125 5 327 -49q67 -18 104.5 -26t84.5 -12.5t79.5 2.5t70 25.5t76.5 51.5z" />
    <glyph glyph-name="nonbreakingspace" unicode="&#xa0;" horiz-adv-x="1028" 
 />
    <glyph glyph-name="exclamdown" unicode="&#xa1;" horiz-adv-x="651" 
d="M-75 -320l152 861h438l-152 -861h-438zM178 1115h438l-61 -344h-438z" />
    <glyph glyph-name="cent" unicode="&#xa2;" horiz-adv-x="1476" 
d="M791 991q-341 0 -389 -276q-6 -45 -5.5 -85.5t19.5 -75.5t51.5 -61t90 -40.5t135.5 -14.5q276 0 360 181h325q-26 -84 -62 -145q-67 -116 -174 -193q-101 -73 -235 -108q-64 -16 -99 -21l-27 -152h-344l27 155q-41 7 -79 18q-121 35 -196 108q-80 77 -106 193
q-24 107 0 241q24 135 85 240q67 116 174 193q104 75 235 109q39 10 85 18l28 159h344l-28 -157q43 -7 92 -20q121 -35 197 -109q80 -77 106 -193q15 -68 11 -145h-325q-21 181 -296 181z" />
    <glyph glyph-name="sterling" unicode="&#xa3;" horiz-adv-x="1830" 
d="M1764 852h-430q10 59 2.5 95.5t-34.5 68.5q-39 46 -98.5 61.5t-171.5 15.5q-139 0 -211 -21t-112 -57q-37 -33 -54.5 -68t-25.5 -115h535l-43 -244h-504q-15 -146 -44 -240h1073l-61 -349h-1376l-129 323q59 79 82 139.5t26 126.5h-128l43 244h95q56 314 290 483
q118 85 283 127q151 37 332 37q154 0 277 -33q137 -37 228 -111q102 -82 143 -208q40 -123 13 -275z" />
    <glyph glyph-name="currency" unicode="&#xa4;" horiz-adv-x="1179" 
d="M945 565q-3 -10 -7 -16l128 -129l-182 -182l-129 128q-2 -1 -7.5 -3.5t-8.5 -3.5q-74 -31 -151 -31q-76 0 -150 31q-3 1 -17 8l-129 -129l-183 182l129 129l1 -1q-3 5 -7 17q-31 74 -31 151t31 151q2 3 4 9t4 9l-2 -2l-129 129l183 183l129 -129l-1 -2l18 9q72 30 150 30
q79 0 151 -30q3 -1 8.5 -3.5t7.5 -3.5l129 129l182 -183l-128 -128q4 -8 7 -17q31 -74 31 -151t-31 -151zM588 587q53 0 91.5 38t38.5 91t-38.5 91t-91.5 38t-91 -38t-38 -91t38 -91t91 -38z" />
    <glyph glyph-name="yen" unicode="&#xa5;" horiz-adv-x="2009" 
d="M1886 1434l-743 -832h295l-25 -143h-365l-21 -115h366l-26 -144h-365l-35 -201h-431l36 201h-352l25 144h352l20 115h-352l25 143h283l-450 832h529l266 -491l439 491h529z" />
    <glyph glyph-name="section" unicode="&#xa7;" horiz-adv-x="1626" 
d="M1428 1338q77 -46 118.5 -129.5t19.5 -207.5l-6 -37h-370l6 37q11 64 -65 94t-246 30q-180 0 -260.5 -24t-91.5 -87q-5 -28 7.5 -45t47 -25.5t79 -12.5t115.5 -7q43 -2 67 -3q119 -3 198 -9t158 -20.5t129 -39t88.5 -65t57.5 -98.5q21 -65 4 -155q-16 -93 -59 -164
q-22 -35 -44 -60q14 -25 23 -53q21 -65 4 -155q-16 -93 -59 -164q-60 -101 -171 -161q-177 -96 -547 -96q-353 0 -492 84q-77 46 -118.5 129t-19.5 207l7 37h370l-7 -37q-11 -64 65.5 -94t246.5 -30q180 0 260.5 24.5t91.5 87.5q9 51 -48 68q-40 13 -205 21q-38 2 -63 3
q-119 3 -198 9t-158 20.5t-129 39t-88.5 65t-57.5 98.5q-21 65 -4 156q16 92 59 163q24 38 44 61q-15 27 -23 52q-21 65 -4 155q16 93 59 164q60 101 171 161q177 96 547 96q354 0 491 -83zM795 613q-206 5 -312 21q-20 -20 -26 -52q-5 -28 7.5 -45t47 -25.5t79 -12.5
t115.5 -7q43 -2 67 -3q205 -5 311 -21q21 21 27 52q5 28 -7.5 45t-47 25.5t-79 12.5t-115.5 7q-43 2 -67 3z" />
    <glyph glyph-name="dieresis" unicode="&#xa8;" horiz-adv-x="702" 
d="M121 1200l40 230h230l-41 -230h-229zM563 1430h229l-40 -230h-230z" />
    <glyph glyph-name="copyright" unicode="&#xa9;" horiz-adv-x="856" 
d="M490 1154q-97 0 -97 -78q0 -79 97 -79q78 0 94 51h93q-3 -19 -11 -41q-13 -33 -40 -55q-25 -20 -61 -31q-33 -9 -75 -9q-41 0 -74 9q-36 11 -61 31q-27 22 -40 55q-12 30 -12 69q0 38 12 68q13 33 40 55q25 20 61 31q33 9 74 9q42 0 75 -9q36 -11 61 -31q27 -22 40 -55
q8 -22 11 -41h-93q-15 51 -94 51zM819 1215q29 -67 29 -139q0 -73 -29 -140q-27 -65 -76 -114q-50 -50 -114 -77q-65 -28 -140 -28t-140 28q-64 27 -114 77t-77 114q-28 65 -28 140q0 74 28 139q27 64 77 114t114 77q65 28 140 28t140 -28q64 -27 114 -77q49 -49 76 -114z
M489 803q113 0 193 80.5t80 192.5t-80 192t-193 80t-193 -80t-80 -192t80 -192.5t193 -80.5z" />
    <glyph glyph-name="guillemotleft" unicode="&#xab;" horiz-adv-x="1210" 
d="M1227 1469l-88 -502l-281 -250l192 -251l-88 -501l-385 501l88 502zM608 967l-281 -250l193 -251l-89 -501l-385 501l88 502l562 501z" />
    <glyph glyph-name="softhyphen" unicode="&#xad;" horiz-adv-x="0" 
 />
    <glyph glyph-name="registered" unicode="&#xae;" horiz-adv-x="856" 
d="M653 1075q-9 -20 -24 -35q-7 -7 -16 -13l48 -99h-101l-38 79h-100v-79h-91v303h219q23 0 44 -9q20 -9 35 -24q14 -14 24 -36q9 -21 9 -43q0 -23 -9 -44zM532 1080q16 0 27.5 11t11.5 28t-11.5 28t-27.5 11h-110v-78h110zM819 1215q29 -67 29 -139q0 -73 -29 -140
q-27 -65 -76 -114q-50 -50 -114 -77q-65 -28 -140 -28t-140 28q-64 27 -114 77t-77 114q-28 65 -28 140q0 74 28 139q27 64 77 114t114 77q65 28 140 28t140 -28q64 -27 114 -77q49 -49 76 -114zM489 803q113 0 193 80.5t80 192.5t-80 192t-193 80t-193 -80t-80 -192
t80 -192.5t193 -80.5z" />
    <glyph glyph-name="degree" unicode="&#xb0;" horiz-adv-x="636" 
d="M417 1553q109 0 187 -77.5t78 -187.5t-78 -188t-187 -78t-187 78t-78 188t78 187.5t187 77.5zM417 1209q33 0 56 23t23 56t-23 56t-56 23t-56 -23t-23 -56t23 -56t56 -23z" />
    <glyph glyph-name="plusminus" unicode="&#xb1;" horiz-adv-x="1210" 
d="M-32 -2l53 302h1007l-53 -302h-1007zM826 1083h352l-53 -302h-352l-62 -352h-302l62 352h-353l54 302h352l62 352h302z" />
    <glyph glyph-name="acute" unicode="&#xb4;" horiz-adv-x="788" 
d="M320 1431h344l-332 -258h-230z" />
    <glyph glyph-name="paragraph" unicode="&#xb6;" horiz-adv-x="1562" 
d="M1460 1434h144l-61 -344h-143l-249 -1409h-344l248 1409h-143l-248 -1409h-345l157 892q-117 0 -206 57.5t-129 157t-19 216.5t96 216t184 156.5t226 57.5h832z" />
    <glyph glyph-name="cedilla" unicode="&#xb8;" horiz-adv-x="563" 
d="M153 0h286l-30 -172l-183 -229h-101l112 229h-114z" />
    <glyph glyph-name="guillemotright" unicode="&#xbb;" horiz-adv-x="1206" 
d="M632 972l-88 -501l-562 -502l89 502l280 250l-192 251l88 501zM778 1473l385 -501l-88 -501l-562 -502l88 502l281 250l-192 251z" />
    <glyph glyph-name="questiondown" unicode="&#xbf;" horiz-adv-x="1728" 
d="M1144 1115l-57 -319h-438l57 319h438zM1157 159h438q-16 -93 -47.5 -166.5t-74.5 -127.5t-104.5 -93.5t-130 -64t-158.5 -39.5t-182.5 -20.5t-210.5 -5.5q-83 0 -152.5 2.5t-136 8.5t-120 16.5t-102 25t-84.5 34.5t-66 46.5t-48.5 59t-28.5 72.5t-10 88.5t10 104.5
q8 44 16 78.5t21 65t24.5 53.5t33 45t39 37.5t50 32.5t58.5 28t72.5 27t83.5 27t99 29q11 3 36 10t32 9.5t25 8t22.5 9t16.5 10t15.5 13t10.5 16t10 21t7 25.5t7 32h441q-13 -75 -22 -111t-31 -89t-55 -81t-90 -64t-140.5 -63t-201.5 -54q-44 -10 -70.5 -21t-40.5 -26.5
t-18.5 -29t-9.5 -38.5q-11 -62 58 -82q58 -18 262 -18h40h77t67 1.5t62.5 4.5t52 8t47 13t36 20t31 28t20 37t14.5 47z" />
    <glyph glyph-name="Agrave" unicode="&#xc0;" 
d="M1219 1548h-230l-241 258h344zM1310 1434l450 -1434h-478l-50 159h-771l-106 -159h-480l956 1434h479zM697 518h420l-134 427z" />
    <glyph glyph-name="Aacute" unicode="&#xc1;" 
d="M1523 1808l-333 -258h-229l217 258h345zM1310 1434l450 -1434h-478l-50 159h-771l-106 -159h-480l956 1434h479zM697 518h420l-134 427z" />
    <glyph glyph-name="Acircumflex" unicode="&#xc2;" 
d="M976 1549h-285l302 254h286l212 -254h-1h-284l-95 113zM1310 1434l450 -1434h-478l-50 159h-771l-106 -159h-480l956 1434h479zM697 518h420l-134 427z" />
    <glyph glyph-name="Atilde" unicode="&#xc3;" 
d="M1069 1581q-78 25 -133.5 23t-106.5 -46l-118 144q62 53 126 78q60 24 123 27q72 3 194 -29q79 -26 135 -23.5t110 47.5l118 -144q-60 -51 -128 -79q-63 -25 -125 -28h-18q-63 0 -177 30zM1310 1434l450 -1434h-478l-50 159h-771l-106 -159h-480l956 1434h479zM697 518
h420l-134 427z" />
    <glyph glyph-name="Adieresis" unicode="&#xc4;" 
d="M1052 1793l-40 -230h-230l40 230h230zM1454 1793l-41 -230h-229l40 230h230zM1310 1434l450 -1434h-478l-50 159h-771l-106 -159h-480l956 1434h479zM697 518h420l-134 427z" />
    <glyph glyph-name="Aring" unicode="&#xc5;" 
d="M1087 1531q-89 0 -141 63t-36 152t90 152t163 63t141 -63t36 -152t-90 -152t-163 -63zM1054 1746q-5 -30 12 -50.5t47 -20.5t54.5 20.5t29.5 50.5t-12 51t-47 21t-54.5 -21t-29.5 -51zM1310 1434l450 -1434h-478l-50 159h-771l-106 -159h-480l956 1434h479zM697 518h420
l-134 427z" />
    <glyph glyph-name="AE" unicode="&#xc6;" horiz-adv-x="2230" 
d="M2197 1075h-756l-31 -179h676l-63 -358h-676l-32 -180h756l-63 -358h-1194l28 159h-381l-106 -159h-480l956 1434h1430zM905 518l74 422l-282 -422h208z" />
    <glyph glyph-name="Ccedilla" unicode="&#xc7;" horiz-adv-x="1959" 
d="M657 -286l30 172h286l-30 -172l-183 -229h-101l112 229h-114zM1059 1115q-111 0 -191 -17.5t-146.5 -61.5t-108.5 -122.5t-63 -196.5q-11 -80 -11.5 -140.5t20 -104.5t50 -73.5t78 -47t104 -25t128.5 -7.5q179 0 291 53t170 186h487q-41 -139 -107 -241.5t-152.5 -170.5
t-203.5 -109.5t-249 -59t-300 -17.5q-96 0 -177.5 6.5t-158 20.5t-139 36.5t-116 55.5t-93 76.5t-67 100t-40.5 125t-11 153t19 183.5q36 207 120 353t218.5 234.5t308 128.5t403.5 40q206 0 354.5 -32t252.5 -102t152 -185.5t41 -277.5h-485q-10 134 -103 186.5t-275 52.5z
" />
    <glyph glyph-name="Egrave" unicode="&#xc8;" horiz-adv-x="1695" 
d="M1140 1549h-229l-242 259h345zM1662 1075h-1036l-31 -179h955l-63 -358h-956l-31 -180h1035l-63 -358h-1473l252 1434h1474z" />
    <glyph glyph-name="Eacute" unicode="&#xc9;" horiz-adv-x="1695" 
d="M1442 1808l-332 -259h-230l218 259h344zM1662 1075h-1036l-31 -179h955l-63 -358h-956l-31 -180h1035l-63 -358h-1473l252 1434h1474z" />
    <glyph glyph-name="Ecircumflex" unicode="&#xca;" horiz-adv-x="1695" 
d="M897 1549h-284l-1 1l302 254h286l213 -254l-1 -1h-284l-96 114zM1662 1075h-1036l-31 -179h955l-63 -358h-956l-31 -180h1035l-63 -358h-1473l252 1434h1474z" />
    <glyph glyph-name="Edieresis" unicode="&#xcb;" horiz-adv-x="1695" 
d="M968 1791l-40 -229h-230l40 229h230zM1370 1791l-41 -229h-229l40 229h230zM1662 1075h-1036l-31 -179h955l-63 -358h-956l-31 -180h1035l-63 -358h-1473l252 1434h1474z" />
    <glyph glyph-name="Igrave" unicode="&#xcc;" horiz-adv-x="688" 
d="M621 1545h-229l-241 259h344zM251 1434h438l-252 -1434h-438z" />
    <glyph glyph-name="Iacute" unicode="&#xcd;" horiz-adv-x="690" 
d="M899 1804l-333 -259h-229l217 259h345zM-1 0l252 1434h438l-252 -1434h-438z" />
    <glyph glyph-name="Icircumflex" unicode="&#xce;" horiz-adv-x="692" 
d="M683 1804l212 -254l-1 -1h-284l-95 114l-136 -114h-284v1l302 254h286zM-1 0l252 1434h438l-252 -1434h-438z" />
    <glyph glyph-name="Idieresis" unicode="&#xcf;" horiz-adv-x="690" 
d="M445 1775l-40 -230h-230l41 230h229zM617 1775h230l-41 -230h-229zM-1 0l252 1434h438l-252 -1434h-438z" />
    <glyph glyph-name="Eth" unicode="&#xd0;" horiz-adv-x="1970" 
d="M1151 1434q145 0 260 -16.5t208.5 -52t155 -92t99.5 -136t42.5 -184t-16.5 -236.5q-25 -140 -69 -249.5t-109 -188.5t-146 -133t-187.5 -86t-224.5 -46t-266 -14h-836l98 558h-119l63 358h120l91 518h836zM1463 717q10 56 10.5 102t-9 81.5t-25.5 62.5t-42.5 46t-57 32
t-71.5 20.5t-84 10.5t-96 3h-398l-28 -159h358l-63 -358h-359l-35 -200h398q86 0 150 8t125.5 31.5t104 62.5t74.5 103.5t48 153.5z" />
    <glyph glyph-name="Ntilde" unicode="&#xd1;" horiz-adv-x="1961" 
d="M1114 1580q-78 25 -133 23.5t-106 -45.5l-119 143q64 55 126 79q57 23 124 26q71 3 193 -29q79 -26 135 -23t110 48l118 -144q-62 -53 -128 -80q-60 -24 -124 -27q-3 0 -9.5 -0.5t-9.5 -0.5q-63 0 -177 30zM1526 1434h438l-253 -1434h-518l-606 851l-150 -851h-438
l252 1434h478l639 -896z" />
    <glyph glyph-name="Ograve" unicode="&#xd2;" horiz-adv-x="1976" 
d="M1272 1589h-230l-241 258h344zM1122 1473q130 0 236 -12.5t196.5 -39.5t156.5 -69.5t114.5 -102.5t71 -138t26.5 -176.5t-19 -217.5q-31 -177 -93 -307.5t-149 -216.5t-211.5 -138t-267 -73.5t-328.5 -21.5q-96 0 -177.5 6.5t-158 20.5t-139 36.5t-116 55.5t-93 76.5
t-67 100t-40.5 125t-11 153t19 183.5q36 207 120 353t218.5 234.5t308 128.5t403.5 40zM1426 717q12 68 12 122.5t-10.5 96t-33.5 72t-54 51t-75 33t-93.5 18t-112.5 5.5q-111 0 -191 -17.5t-146.5 -61.5t-108.5 -122.5t-63 -196.5q-11 -80 -11.5 -140.5t20 -104.5t50 -73.5
t78 -47t104 -25t128.5 -7.5q110 0 189.5 17.5t146 61.5t108.5 122.5t63 196.5z" />
    <glyph glyph-name="Oacute" unicode="&#xd3;" horiz-adv-x="1976" 
d="M1573 1847l-332 -258h-230l218 258h344zM1122 1473q130 0 236 -12.5t196.5 -39.5t156.5 -69.5t114.5 -102.5t71 -138t26.5 -176.5t-19 -217.5q-31 -177 -93 -307.5t-149 -216.5t-211.5 -138t-267 -73.5t-328.5 -21.5q-96 0 -177.5 6.5t-158 20.5t-139 36.5t-116 55.5
t-93 76.5t-67 100t-40.5 125t-11 153t19 183.5q36 207 120 353t218.5 234.5t308 128.5t403.5 40zM1426 717q12 68 12 122.5t-10.5 96t-33.5 72t-54 51t-75 33t-93.5 18t-112.5 5.5q-111 0 -191 -17.5t-146.5 -61.5t-108.5 -122.5t-63 -196.5q-11 -80 -11.5 -140.5t20 -104.5
t50 -73.5t78 -47t104 -25t128.5 -7.5q110 0 189.5 17.5t146 61.5t108.5 122.5t63 196.5z" />
    <glyph glyph-name="Ocircumflex" unicode="&#xd4;" horiz-adv-x="1976" 
d="M1028 1592h-285v1l302 254h286l212 -254l-1 -1h-284l-95 114zM1122 1473q130 0 236 -12.5t196.5 -39.5t156.5 -69.5t114.5 -102.5t71 -138t26.5 -176.5t-19 -217.5q-31 -177 -93 -307.5t-149 -216.5t-211.5 -138t-267 -73.5t-328.5 -21.5q-96 0 -177.5 6.5t-158 20.5
t-139 36.5t-116 55.5t-93 76.5t-67 100t-40.5 125t-11 153t19 183.5q36 207 120 353t218.5 234.5t308 128.5t403.5 40zM1426 717q12 68 12 122.5t-10.5 96t-33.5 72t-54 51t-75 33t-93.5 18t-112.5 5.5q-111 0 -191 -17.5t-146.5 -61.5t-108.5 -122.5t-63 -196.5
q-11 -80 -11.5 -140.5t20 -104.5t50 -73.5t78 -47t104 -25t128.5 -7.5q110 0 189.5 17.5t146 61.5t108.5 122.5t63 196.5z" />
    <glyph glyph-name="Otilde" unicode="&#xd5;" horiz-adv-x="1976" 
d="M1119 1621q-78 25 -133.5 23t-106.5 -46l-118 144q62 53 126 78q60 24 123 27q72 3 194 -29q79 -26 135 -23.5t110 47.5l118 -144q-60 -51 -128 -79q-63 -25 -125 -28h-18q-63 0 -177 30zM1122 1473q130 0 236 -12.5t196.5 -39.5t156.5 -69.5t114.5 -102.5t71 -138
t26.5 -176.5t-19 -217.5q-31 -177 -93 -307.5t-149 -216.5t-211.5 -138t-267 -73.5t-328.5 -21.5q-96 0 -177.5 6.5t-158 20.5t-139 36.5t-116 55.5t-93 76.5t-67 100t-40.5 125t-11 153t19 183.5q36 207 120 353t218.5 234.5t308 128.5t403.5 40zM1426 717q12 68 12 122.5
t-10.5 96t-33.5 72t-54 51t-75 33t-93.5 18t-112.5 5.5q-111 0 -191 -17.5t-146.5 -61.5t-108.5 -122.5t-63 -196.5q-11 -80 -11.5 -140.5t20 -104.5t50 -73.5t78 -47t104 -25t128.5 -7.5q110 0 189.5 17.5t146 61.5t108.5 122.5t63 196.5z" />
    <glyph glyph-name="Odieresis" unicode="&#xd6;" horiz-adv-x="1976" 
d="M1098 1830l-40 -229h-230l41 229h229zM1500 1830l-41 -229h-229l40 229h230zM1122 1473q130 0 236 -12.5t196.5 -39.5t156.5 -69.5t114.5 -102.5t71 -138t26.5 -176.5t-19 -217.5q-31 -177 -93 -307.5t-149 -216.5t-211.5 -138t-267 -73.5t-328.5 -21.5q-96 0 -177.5 6.5
t-158 20.5t-139 36.5t-116 55.5t-93 76.5t-67 100t-40.5 125t-11 153t19 183.5q36 207 120 353t218.5 234.5t308 128.5t403.5 40zM1426 717q12 68 12 122.5t-10.5 96t-33.5 72t-54 51t-75 33t-93.5 18t-112.5 5.5q-111 0 -191 -17.5t-146.5 -61.5t-108.5 -122.5t-63 -196.5
q-11 -80 -11.5 -140.5t20 -104.5t50 -73.5t78 -47t104 -25t128.5 -7.5q110 0 189.5 17.5t146 61.5t108.5 122.5t63 196.5z" />
    <glyph glyph-name="multiply" unicode="&#xd7;" horiz-adv-x="1202" 
d="M1179 1001l-334 -284l234 -284l-286 -244l-234 284l-335 -284l-200 244l334 284l-234 284l286 243l234 -284l335 284z" />
    <glyph glyph-name="Oslash" unicode="&#xd8;" horiz-adv-x="2015" 
d="M2031 1227l-126 -84q65 -166 19 -426q-31 -177 -93 -307.5t-149 -216.5t-211 -138t-266.5 -73.5t-328.5 -21.5q-384 0 -572 107l-170 -114l-149 253l125 84q-64 169 -18 427q36 207 120.5 353t218.5 234.5t308 128.5t404 40q375 0 567 -109l173 117zM570 717
q-12 -71 -12 -126l740 497q-78 27 -219 27q-111 0 -191 -17.5t-146.5 -61.5t-108.5 -122.5t-63 -196.5zM1446 717q13 76 13 126l-739 -497q80 -27 219 -27q110 0 189.5 17.5t146 61.5t108.5 122.5t63 196.5z" />
    <glyph glyph-name="Ugrave" unicode="&#xd9;" horiz-adv-x="1869" 
d="M1212 1550h-229l-242 258h345zM1459 1434h438l-126 -717q-31 -175 -96 -307.5t-152 -217t-204.5 -137.5t-242 -74t-274.5 -21q-93 0 -172.5 8t-154.5 26t-134.5 48t-109.5 72.5t-83 101t-51.5 131.5t-18 166.5t19.5 203.5l127 717h438l-126 -717q-12 -67 -12 -122
t10.5 -96.5t32 -72.5t50 -51t68 -32.5t83 -18t96.5 -5.5q95 0 167 18t134.5 61t104.5 122.5t62 196.5z" />
    <glyph glyph-name="Uacute" unicode="&#xda;" horiz-adv-x="1869" 
d="M1517 1809l-332 -258h-230l218 258h344zM1459 1434h438l-126 -717q-31 -175 -96 -307.5t-152 -217t-204.5 -137.5t-242 -74t-274.5 -21q-93 0 -172.5 8t-154.5 26t-134.5 48t-109.5 72.5t-83 101t-51.5 131.5t-18 166.5t19.5 203.5l127 717h438l-126 -717
q-12 -67 -12 -122t10.5 -96.5t32 -72.5t50 -51t68 -32.5t83 -18t96.5 -5.5q95 0 167 18t134.5 61t104.5 122.5t62 196.5z" />
    <glyph glyph-name="Ucircumflex" unicode="&#xdb;" horiz-adv-x="1869" 
d="M966 1549h-284v1l302 254h286l212 -254l-1 -1h-284l-95 114zM1459 1434h438l-126 -717q-31 -175 -96 -307.5t-152 -217t-204.5 -137.5t-242 -74t-274.5 -21q-93 0 -172.5 8t-154.5 26t-134.5 48t-109.5 72.5t-83 101t-51.5 131.5t-18 166.5t19.5 203.5l127 717h438
l-126 -717q-12 -67 -12 -122t10.5 -96.5t32 -72.5t50 -51t68 -32.5t83 -18t96.5 -5.5q95 0 167 18t134.5 61t104.5 122.5t62 196.5z" />
    <glyph glyph-name="Udieresis" unicode="&#xdc;" horiz-adv-x="1869" 
d="M1040 1795l-41 -230h-229l40 230h230zM1442 1795l-41 -230h-229l40 230h230zM1459 1434h438l-126 -717q-31 -175 -96 -307.5t-152 -217t-204.5 -137.5t-242 -74t-274.5 -21q-93 0 -172.5 8t-154.5 26t-134.5 48t-109.5 72.5t-83 101t-51.5 131.5t-18 166.5t19.5 203.5
l127 717h438l-126 -717q-12 -67 -12 -122t10.5 -96.5t32 -72.5t50 -51t68 -32.5t83 -18t96.5 -5.5q95 0 167 18t134.5 61t104.5 122.5t62 196.5z" />
    <glyph glyph-name="Yacute" unicode="&#xdd;" horiz-adv-x="1734" 
d="M1442 1808l-332 -259h-230l218 259h344zM1351 1434h518l-818 -910l-92 -524h-438l92 524l-496 910h517l271 -497z" />
    <glyph glyph-name="Thorn" unicode="&#xde;" horiz-adv-x="1607" 
d="M1554 922q24 -100 5 -206q-20 -111 -78 -207q-56 -94 -143 -168q-83 -71 -188 -113t-214 -42h-474l-33 -187h-430l253 1435h430l-33 -189h474q110 0 199 -41t148 -114q60 -74 84 -168zM1128 716q13 76 -31.5 130.5t-121.5 54.5h-387l-65 -371h387q76 0 140 54.5t78 131.5
z" />
    <glyph glyph-name="germandbls" unicode="&#xdf;" horiz-adv-x="1316" 
d="M1236 461q16 -93 -17 -188.5t-107 -172.5q-142 -148 -339 -153h-10q-100 0 -186 40t-132 108l250 187q12 -18 46.5 -33.5t75.5 -14.5q59 1 101 43q38 40 30 91q-8 54 -68 69q-108 29 -171 76q-77 58 -100 142q-22 82 8 174q23 73 82 158q78 113 53 171q-11 24 -36 36.5
t-52 12.5t-42 -2.5t-41.5 -23t-45 -60t-42.5 -119.5t-44 -196l-141 -804h-287l141 804q28 155 59 255q38 123 95 213q142 220 398 220q103 0 182 -46q88 -50 127 -142q14 -33 20.5 -72.5t3.5 -96.5t-33 -131t-85 -152q-44 -62 -37 -82q2 -7 11.5 -15.5t34.5 -20.5t61 -21
q98 -25 162 -95q59 -66 75 -159z" />
    <glyph glyph-name="agrave" unicode="&#xe0;" horiz-adv-x="1595" 
d="M1029 1199h-230l-241 258h344zM878 1075q101 0 179 -4t148 -14.5t119.5 -27.5t90 -43.5t64 -62t36 -83.5t11 -108t-14.5 -135l-106 -597h-398l-26 80q-104 -62 -211 -91t-248 -29q-91 0 -164.5 8t-144.5 31t-116 59.5t-66 98t-7 142.5q31 177 222 257.5t555 80.5
q118 0 182.5 8.5t84 21t23.5 34.5q7 39 -83.5 59.5t-217.5 16.5q-68 -2 -130 -7.5t-102 -10.5t-94 -17t-74.5 -17.5t-77 -22t-71.5 -20.5l-41 275q153 52 340.5 85t337.5 33zM466 319q-9 -52 72 -74q99 -27 236 5q167 39 241 137q18 24 29 51q-71 -9 -153.5 -14.5t-137.5 -7
t-111 -7t-90 -14t-57.5 -27.5t-28.5 -49z" />
    <glyph glyph-name="aacute" unicode="&#xe1;" horiz-adv-x="1595" 
d="M1332 1459l-333 -258h-229l218 258h344zM878 1075q101 0 179 -4t148 -14.5t119.5 -27.5t90 -43.5t64 -62t36 -83.5t11 -108t-14.5 -135l-106 -597h-398l-26 80q-104 -62 -211 -91t-248 -29q-91 0 -164.5 8t-144.5 31t-116 59.5t-66 98t-7 142.5q31 177 222 257.5
t555 80.5q118 0 182.5 8.5t84 21t23.5 34.5q7 39 -83.5 59.5t-217.5 16.5q-68 -2 -130 -7.5t-102 -10.5t-94 -17t-74.5 -17.5t-77 -22t-71.5 -20.5l-41 275q153 52 340.5 85t337.5 33zM466 319q-9 -52 72 -74q99 -27 236 5q167 39 241 137q18 24 29 51q-71 -9 -153.5 -14.5
t-137.5 -7t-111 -7t-90 -14t-57.5 -27.5t-28.5 -49z" />
    <glyph glyph-name="acircumflex" unicode="&#xe2;" horiz-adv-x="1595" 
d="M785 1199h-284l-1 1l302 254h286l212 -254l-1 -1h-284l-95 114zM878 1075q101 0 179 -4t148 -14.5t119.5 -27.5t90 -43.5t64 -62t36 -83.5t11 -108t-14.5 -135l-106 -597h-398l-26 80q-104 -62 -211 -91t-248 -29q-91 0 -164.5 8t-144.5 31t-116 59.5t-66 98t-7 142.5
q31 177 222 257.5t555 80.5q118 0 182.5 8.5t84 21t23.5 34.5q7 39 -83.5 59.5t-217.5 16.5q-68 -2 -130 -7.5t-102 -10.5t-94 -17t-74.5 -17.5t-77 -22t-71.5 -20.5l-41 275q153 52 340.5 85t337.5 33zM466 319q-9 -52 72 -74q99 -27 236 5q167 39 241 137q18 24 29 51
q-71 -9 -153.5 -14.5t-137.5 -7t-111 -7t-90 -14t-57.5 -27.5t-28.5 -49z" />
    <glyph glyph-name="atilde" unicode="&#xe3;" horiz-adv-x="1595" 
d="M879 1232q-78 25 -133 23t-106 -46l-119 144q61 52 127 78q60 24 123 27q71 3 193 -29q79 -26 135 -23.5t110 47.5l119 -144q-60 -51 -128 -79q-63 -25 -125 -28h-19q-63 0 -177 30zM878 1075q101 0 179 -4t148 -14.5t119.5 -27.5t90 -43.5t64 -62t36 -83.5t11 -108
t-14.5 -135l-106 -597h-398l-26 80q-104 -62 -211 -91t-248 -29q-91 0 -164.5 8t-144.5 31t-116 59.5t-66 98t-7 142.5q31 177 222 257.5t555 80.5q118 0 182.5 8.5t84 21t23.5 34.5q7 39 -83.5 59.5t-217.5 16.5q-68 -2 -130 -7.5t-102 -10.5t-94 -17t-74.5 -17.5t-77 -22
t-71.5 -20.5l-41 275q153 52 340.5 85t337.5 33zM466 319q-9 -52 72 -74q99 -27 236 5q167 39 241 137q18 24 29 51q-71 -9 -153.5 -14.5t-137.5 -7t-111 -7t-90 -14t-57.5 -27.5t-28.5 -49z" />
    <glyph glyph-name="adieresis" unicode="&#xe4;" horiz-adv-x="1595" 
d="M861 1444l-40 -230h-230l41 230h229zM1263 1444l-41 -230h-229l40 230h230zM878 1075q101 0 179 -4t148 -14.5t119.5 -27.5t90 -43.5t64 -62t36 -83.5t11 -108t-14.5 -135l-106 -597h-398l-26 80q-104 -62 -211 -91t-248 -29q-91 0 -164.5 8t-144.5 31t-116 59.5t-66 98
t-7 142.5q31 177 222 257.5t555 80.5q118 0 182.5 8.5t84 21t23.5 34.5q7 39 -83.5 59.5t-217.5 16.5q-68 -2 -130 -7.5t-102 -10.5t-94 -17t-74.5 -17.5t-77 -22t-71.5 -20.5l-41 275q153 52 340.5 85t337.5 33zM466 319q-9 -52 72 -74q99 -27 236 5q167 39 241 137
q18 24 29 51q-71 -9 -153.5 -14.5t-137.5 -7t-111 -7t-90 -14t-57.5 -27.5t-28.5 -49z" />
    <glyph glyph-name="aring" unicode="&#xe5;" horiz-adv-x="1595" 
d="M897 1187q-89 0 -141 63t-36 152t90 152t163 63t141 -63t36 -152t-90 -152t-163 -63zM864 1402q-5 -30 12 -51t47 -21t54.5 21t29.5 51t-12 50.5t-47 20.5t-54.5 -20.5t-29.5 -50.5zM878 1075q101 0 179 -4t148 -14.5t119.5 -27.5t90 -43.5t64 -62t36 -83.5t11 -108
t-14.5 -135l-106 -597h-398l-26 80q-104 -62 -211 -91t-248 -29q-91 0 -164.5 8t-144.5 31t-116 59.5t-66 98t-7 142.5q31 177 222 257.5t555 80.5q118 0 182.5 8.5t84 21t23.5 34.5q7 39 -83.5 59.5t-217.5 16.5q-68 -2 -130 -7.5t-102 -10.5t-94 -17t-74.5 -17.5t-77 -22
t-71.5 -20.5l-41 275q153 52 340.5 85t337.5 33zM466 319q-9 -52 72 -74q99 -27 236 5q167 39 241 137q18 24 29 51q-71 -9 -153.5 -14.5t-137.5 -7t-111 -7t-90 -14t-57.5 -27.5t-28.5 -49z" />
    <glyph glyph-name="ae" unicode="&#xe6;" horiz-adv-x="2592" 
d="M1894 1075q370 0 530.5 -128.5t109.5 -419.5q-7 -41 -18 -79h-1026q-3 -106 60 -157.5t198 -51.5q64 0 118.5 5.5t88 12.5t66.5 20.5t46.5 21t37 23t28.5 18.5l254 -165q-128 -117 -283.5 -166t-405.5 -49q-199 0 -337 40h-354l-26 80q-104 -62 -211 -91t-248 -29
q-91 0 -164.5 8t-144.5 31t-116 59.5t-66 98t-7 142.5q31 177 222 257.5t555 80.5q118 0 182.5 8.5t84 21t23.5 34.5q7 39 -83.5 59.5t-217.5 16.5q-68 -2 -130 -7.5t-102 -10.5t-94 -17t-74.5 -17.5t-77 -22t-71.5 -20.5l-41 275q153 52 340.5 85t337.5 33q199 0 325.5 -18
t200.5 -64q187 82 490 82zM466 319q-9 -52 72 -74q99 -27 236 5q167 39 241 137q18 24 29 51q-71 -9 -153.5 -14.5t-137.5 -7t-111 -7t-90 -14t-57.5 -27.5t-28.5 -49zM1533 647h570q-9 84 -66.5 116.5t-192.5 32.5t-204 -32.5t-107 -116.5z" />
    <glyph glyph-name="ccedilla" unicode="&#xe7;" horiz-adv-x="1597" 
d="M511 -282l31 172h286l-30 -172l-184 -229h-100l112 229h-115zM856 796q-152 0 -237 -65.5t-111 -212.5t35.5 -213t213.5 -66q233 0 311 159h445q-76 -228 -276.5 -333t-528.5 -105q-368 0 -528.5 133t-109.5 425t259 424.5t576 132.5q328 0 491 -105t159 -333h-445
q-12 83 -74.5 121t-179.5 38z" />
    <glyph glyph-name="egrave" unicode="&#xe8;" horiz-adv-x="1603" 
d="M1059 1200h-230l-241 259h344zM905 1075q370 0 530.5 -128.5t109.5 -419.5q-7 -41 -18 -79h-1026q-3 -106 60 -157.5t198 -51.5q64 0 118.5 5.5t88 12.5t66.5 20.5t46.5 21t37 23t28.5 18.5l254 -165q-128 -117 -283.5 -166t-405.5 -49q-366 0 -528 137t-110 430
q51 291 257.5 419.5t576.5 128.5zM544 647h570q-9 84 -66.5 116.5t-192.5 32.5t-204 -32.5t-107 -116.5z" />
    <glyph glyph-name="eacute" unicode="&#xe9;" horiz-adv-x="1603" 
d="M1361 1459l-333 -259h-229l217 259h345zM905 1075q370 0 530.5 -128.5t109.5 -419.5q-7 -41 -18 -79h-1026q-3 -106 60 -157.5t198 -51.5q64 0 118.5 5.5t88 12.5t66.5 20.5t46.5 21t37 23t28.5 18.5l254 -165q-128 -117 -283.5 -166t-405.5 -49q-366 0 -528 137
t-110 430q51 291 257.5 419.5t576.5 128.5zM544 647h570q-9 84 -66.5 116.5t-192.5 32.5t-204 -32.5t-107 -116.5z" />
    <glyph glyph-name="ecircumflex" unicode="&#xea;" horiz-adv-x="1603" 
d="M815 1200h-284l-1 1l302 254h286l213 -254l-1 -1h-284l-96 114zM905 1075q370 0 530.5 -128.5t109.5 -419.5q-7 -41 -18 -79h-1026q-3 -106 60 -157.5t198 -51.5q64 0 118.5 5.5t88 12.5t66.5 20.5t46.5 21t37 23t28.5 18.5l254 -165q-128 -117 -283.5 -166t-405.5 -49
q-366 0 -528 137t-110 430q51 291 257.5 419.5t576.5 128.5zM544 647h570q-9 84 -66.5 116.5t-192.5 32.5t-204 -32.5t-107 -116.5z" />
    <glyph glyph-name="edieresis" unicode="&#xeb;" horiz-adv-x="1603" 
d="M886 1442l-40 -230h-230l41 230h229zM1288 1442l-41 -230h-229l40 230h230zM905 1075q370 0 530.5 -128.5t109.5 -419.5q-7 -41 -18 -79h-1026q-3 -106 60 -157.5t198 -51.5q64 0 118.5 5.5t88 12.5t66.5 20.5t46.5 21t37 23t28.5 18.5l254 -165q-128 -117 -283.5 -166
t-405.5 -49q-366 0 -528 137t-110 430q51 291 257.5 419.5t576.5 128.5zM544 647h570q-9 84 -66.5 116.5t-192.5 32.5t-204 -32.5t-107 -116.5z" />
    <glyph glyph-name="igrave" unicode="&#xec;" horiz-adv-x="663" 
d="M582 1196h-229l-242 259h345zM204 1035h438l-183 -1035h-438z" />
    <glyph glyph-name="iacute" unicode="&#xed;" horiz-adv-x="665" 
d="M860 1455l-332 -259h-230l218 259h344zM21 0l183 1035h438l-183 -1035h-438z" />
    <glyph glyph-name="icircumflex" unicode="&#xee;" horiz-adv-x="667" 
d="M640 1455l212 -254l-1 -1h-284l-95 114l-135 -114h-284l-1 1l302 254h286zM21 0l183 1035h438l-183 -1035h-438z" />
    <glyph glyph-name="idieresis" unicode="&#xef;" horiz-adv-x="665" 
d="M406 1426l-40 -230h-230l41 230h229zM578 1426h230l-40 -230h-230zM21 0l183 1035h438l-183 -1035h-438z" />
    <glyph glyph-name="eth" unicode="&#xf0;" horiz-adv-x="1658" 
d="M1693 1354h139l-35 -199h-139l-204 -1155h-398l-26 80q-6 -5 -17 -13t-50 -28.5t-84 -36.5t-117.5 -29t-150.5 -13q-69 0 -129 6t-117 19.5t-102 35.5t-84.5 54t-64 74t-41 97t-15 122.5t13.5 149.5q23 128 72.5 225.5t116 160t156 101.5t183.5 54.5t207 15.5
q78 0 145.5 -12.5t108.5 -29.5t70.5 -34.5t41.5 -30.5l12 -12l35 199h-180l36 199h179l14 80h438zM1107 518q13 72 -1.5 127t-50.5 87t-85.5 48t-111.5 16t-117 -16t-103 -48t-81.5 -87t-46.5 -127t1.5 -127t51 -87.5t86 -48.5t111.5 -16q130 0 226 69t121 210z" />
    <glyph glyph-name="ntilde" unicode="&#xf1;" horiz-adv-x="1677" 
d="M956 1231q-77 25 -133 23.5t-107 -45.5l-118 143q62 53 126 78q60 24 124 27q71 3 193 -29q79 -26 135 -23.5t110 47.5l118 -143q-62 -53 -128 -80q-60 -24 -125 -27q-3 0 -9 -0.5t-9 -0.5q-63 0 -177 30zM1087 1075q282 0 415.5 -135t83.5 -422l-91 -518h-438l91 518
q13 72 -1.5 127t-51 87t-86 48t-111.5 16q-83 0 -153 -27t-123.5 -91.5t-70.5 -159.5l-92 -518h-438l183 1035h438l-14 -79q7 5 21 13t60 28.5t96 36t127 28.5t155 13z" />
    <glyph glyph-name="ograve" unicode="&#xf2;" horiz-adv-x="1611" 
d="M1064 1240h-230l-241 258h344zM905 1075q368 0 528.5 -132.5t109.5 -424.5t-259 -425t-576 -133t-528.5 133t-109.5 425t259 424.5t576 132.5zM1105 518q26 147 -35.5 212.5t-213.5 65.5t-237 -65.5t-111 -212.5t35.5 -213t213.5 -66t237 66t111 213z" />
    <glyph glyph-name="oacute" unicode="&#xf3;" horiz-adv-x="1611" 
d="M1365 1498l-332 -258h-230l218 258h344zM905 1075q368 0 528.5 -132.5t109.5 -424.5t-259 -425t-576 -133t-528.5 133t-109.5 425t259 424.5t576 132.5zM1105 518q26 147 -35.5 212.5t-213.5 65.5t-237 -65.5t-111 -212.5t35.5 -213t213.5 -66t237 66t111 213z" />
    <glyph glyph-name="ocircumflex" unicode="&#xf4;" horiz-adv-x="1611" 
d="M819 1243h-284l-1 1l302 254h286l213 -254l-1 -1h-284l-96 114zM905 1075q368 0 528.5 -132.5t109.5 -424.5t-259 -425t-576 -133t-528.5 133t-109.5 425t259 424.5t576 132.5zM1105 518q26 147 -35.5 212.5t-213.5 65.5t-237 -65.5t-111 -212.5t35.5 -213t213.5 -66
t237 66t111 213z" />
    <glyph glyph-name="otilde" unicode="&#xf5;" horiz-adv-x="1611" 
d="M911 1272q-78 25 -133.5 23t-106.5 -46l-118 144q62 53 126 78q60 24 124 27q71 3 193 -29q79 -26 135 -23.5t110 47.5l118 -144q-60 -51 -128 -79q-63 -25 -125 -28h-18q-63 0 -177 30zM905 1075q368 0 528.5 -132.5t109.5 -424.5t-259 -425t-576 -133t-528.5 133
t-109.5 425t259 424.5t576 132.5zM1105 518q26 147 -35.5 212.5t-213.5 65.5t-237 -65.5t-111 -212.5t35.5 -213t213.5 -66t237 66t111 213z" />
    <glyph glyph-name="odieresis" unicode="&#xf6;" horiz-adv-x="1611" 
d="M890 1481l-40 -229h-230l41 229h229zM1292 1481l-41 -229h-229l40 229h230zM905 1075q368 0 528.5 -132.5t109.5 -424.5t-259 -425t-576 -133t-528.5 133t-109.5 425t259 424.5t576 132.5zM1105 518q26 147 -35.5 212.5t-213.5 65.5t-237 -65.5t-111 -212.5t35.5 -213
t213.5 -66t237 66t111 213z" />
    <glyph glyph-name="divide" unicode="&#xf7;" horiz-adv-x="1286" 
d="M99 889h1147l-60 -344h-1148zM824 1030q-58 -52 -129.5 -55t-115.5 45t-34.5 119t67.5 124t129.5 56t115.5 -45t34.5 -119.5t-67.5 -124.5zM673 170q-58 -53 -129.5 -56t-115.5 45t-35 119.5t67 123.5q58 53 129.5 56t115.5 -45t35 -119.5t-67 -123.5z" />
    <glyph glyph-name="oslash" unicode="&#xf8;" horiz-adv-x="1673" 
d="M1699 984l-170 -114q85 -130 46 -352q-51 -292 -259 -425t-576 -133q-289 0 -447 79l-178 -119l-124 211l129 87q-50 120 -19 300q51 292 259 424.5t576 132.5q237 0 383 -52l256 172zM539 518l-3 -21l436 293q-39 6 -85 6q-152 0 -237 -65.5t-111 -212.5zM1137 518
q9 50 7 93l-514 -345q62 -27 159 -27q152 0 237 66t111 213z" />
    <glyph glyph-name="ugrave" unicode="&#xf9;" horiz-adv-x="1677" 
d="M1080 1201h-229l-242 258h345zM1219 1035h438l-182 -1035h-399l-25 80q-7 -5 -21 -13t-60 -28.5t-96 -36.5t-127 -29t-155 -13q-282 0 -416 135.5t-84 422.5l92 517h438l-91 -517q-13 -72 1.5 -127t50.5 -87.5t85.5 -48.5t111.5 -16q83 0 153 27t124 92t71 160z" />
    <glyph glyph-name="uacute" unicode="&#xfa;" horiz-adv-x="1677" 
d="M1386 1460l-333 -259h-229l217 259h345zM1219 1035h438l-182 -1035h-399l-25 80q-7 -5 -21 -13t-60 -28.5t-96 -36.5t-127 -29t-155 -13q-282 0 -416 135.5t-84 422.5l92 517h438l-91 -517q-13 -72 1.5 -127t50.5 -87.5t85.5 -48.5t111.5 -16q83 0 153 27t124 92t71 160z
" />
    <glyph glyph-name="ucircumflex" unicode="&#xfb;" horiz-adv-x="1677" 
d="M836 1209h-284h-1l302 254h286l213 -254h-1h-284l-96 113zM1219 1035h438l-182 -1035h-399l-25 80q-7 -5 -21 -13t-60 -28.5t-96 -36.5t-127 -29t-155 -13q-282 0 -416 135.5t-84 422.5l92 517h438l-91 -517q-13 -72 1.5 -127t50.5 -87.5t85.5 -48.5t111.5 -16
q83 0 153 27t124 92t71 160z" />
    <glyph glyph-name="udieresis" unicode="&#xfc;" horiz-adv-x="1677" 
d="M910 1454l-41 -229h-230l41 229h230zM1311 1454l-40 -229h-230l41 229h229zM1219 1035h438l-182 -1035h-399l-25 80q-7 -5 -21 -13t-60 -28.5t-96 -36.5t-127 -29t-155 -13q-282 0 -416 135.5t-84 422.5l92 517h438l-91 -517q-13 -72 1.5 -127t50.5 -87.5t85.5 -48.5
t111.5 -16q83 0 153 27t124 92t71 160z" />
    <glyph glyph-name="yacute" unicode="&#xfd;" horiz-adv-x="1447" 
d="M1276 1467l-332 -258h-230l218 258h344zM1114 1033h410l-768 -1075q-17 -24 -50 -70q-53 -76 -79.5 -111.5t-73 -93t-78 -81.5t-81.5 -58.5t-97 -43t-110 -16t-136 3t-161 32.5l60 338q146 -32 182 -34q78 -6 135 43q36 31 79 91l101 142l-338 933h410l200 -552z" />
    <glyph glyph-name="thorn" unicode="&#xfe;" horiz-adv-x="1603" 
d="M1577 922q24 -100 5 -206q-20 -111 -78 -207q-56 -94 -143 -168q-83 -71 -188 -113t-214 -42h-474l-33 -187h-431l253 1435h431l-34 -189h475q110 0 199 -41t148 -114q60 -74 84 -168zM1151 716q13 76 -31.5 130.5t-121.5 54.5h-387l-66 -371h388q76 0 140 54.5t78 131.5
z" />
    <glyph glyph-name="ydieresis" unicode="&#xff;" horiz-adv-x="1447" 
d="M801 1453l-40 -229h-230l41 229h229zM1203 1453l-41 -229h-229l40 229h230zM1114 1033h410l-768 -1075q-17 -24 -50 -70q-53 -76 -79.5 -111.5t-73 -93t-78 -81.5t-81.5 -58.5t-97 -43t-110 -16t-136 3t-161 32.5l60 338q146 -32 182 -34q78 -6 135 43q36 31 79 91
l101 142l-338 933h410l200 -552z" />
    <glyph glyph-name="dotlessi" unicode="&#x131;" horiz-adv-x="569" 
d="M218 1115h344l-196 -1115h-345z" />
    <glyph glyph-name="Lslash" unicode="&#x141;" horiz-adv-x="1712" 
d="M628 358h996l-63 -358h-1434l67 379l-93 -71l-126 180l275 208l130 738h438l-62 -354l322 244l126 -179l-504 -383z" />
    <glyph glyph-name="lslash" unicode="&#x142;" horiz-adv-x="1128" 
d="M1102 1225l126 -180l-393 -298l-132 -747h-438l64 364l-204 -155l-126 180l386 292l133 753h438l-65 -369z" />
    <glyph glyph-name="OE" unicode="&#x152;" horiz-adv-x="3035" 
d="M3002 1075h-1035l-32 -179h956l-63 -358h-956l-31 -180h1035l-63 -358h-1474l3 15q-190 -55 -487 -55q-96 0 -177.5 6.5t-158 20.5t-139 36.5t-116 55.5t-93 76.5t-67 100t-40.5 125t-11 153t19 183.5q36 207 120 353t218.5 234.5t308 128.5t403.5 40q290 0 466 -63l4 24
h1474zM1426 717q12 68 12 122.5t-10.5 96t-33.5 72t-54 51t-75 33t-93.5 18t-112.5 5.5q-111 0 -191 -17.5t-146.5 -61.5t-108.5 -122.5t-63 -196.5q-11 -80 -11.5 -140.5t20 -104.5t50 -73.5t78 -47t104 -25t128.5 -7.5q110 0 189.5 17.5t146 61.5t108.5 122.5t63 196.5z
" />
    <glyph glyph-name="oe" unicode="&#x153;" horiz-adv-x="2639" 
d="M1940 1075q370 0 530.5 -128.5t109.5 -419.5q-9 -50 -17 -79h-1027q-3 -106 60 -157.5t198 -51.5q64 0 118.5 5.5t88 12.5t66.5 20.5t46.5 21t37 23t28.5 18.5l255 -165q-128 -117 -283.5 -166t-405.5 -49q-336 0 -496 112q-199 -112 -541 -112q-368 0 -528.5 133
t-109.5 425t259 424.5t576 132.5q336 0 495 -107q195 107 540 107zM1105 518q26 147 -35.5 212.5t-213.5 65.5t-237 -65.5t-111 -212.5t35.5 -213t213.5 -66t237 66t111 213zM1580 647h569q-9 84 -66 116.5t-192 32.5t-204 -32.5t-107 -116.5z" />
    <glyph glyph-name="Scaron" unicode="&#x160;" horiz-adv-x="1906" 
d="M1245 1549h-286l-213 254l1 1h284l96 -114l135 114h284l1 -1zM1850 956h-438q7 39 0.5 67t-34 45t-52.5 27t-84 14t-98 5t-123 1q-81 0 -120 -0.5t-98 -3t-87 -9t-60.5 -17t-47 -28t-18.5 -42.5q-12 -70 67 -94q56 -17 241 -22q63 -2 91 -3h1h1q183 -6 295.5 -16
t228.5 -38t172.5 -76t84.5 -129.5t7 -198.5h-1q-15 -84 -47.5 -151.5t-79 -117.5t-112.5 -86.5t-139.5 -60t-169 -37.5t-193 -19.5t-218.5 -5.5q-88 0 -160 2.5t-143 9t-127.5 17.5t-109 27t-91.5 38.5t-71.5 52t-52.5 66.5t-31.5 82.5t-10.5 101.5t12 121h438q-7 -39 1 -67
t38 -45t57.5 -27t89 -14t101 -5t123.5 -1q62 0 92 0.5t81.5 1.5t77 4t62.5 8.5t56 14.5t40 21t31.5 29.5t14.5 39.5q6 31 -2 53.5t-30 37t-51 23.5t-73 13.5t-87.5 6.5t-102.5 4q-45 1 -69 2h-1q-182 6 -293.5 16t-224 37t-167 72.5t-81 123t-6.5 188.5q17 93 55 165
t99.5 122t137.5 83.5t179.5 52.5t213.5 27t251 8q88 0 159.5 -2.5t141.5 -9t125 -17.5t106 -27t88.5 -38.5t69 -51.5t50 -66t29 -83t9.5 -101.5t-13 -120.5z" />
    <glyph glyph-name="scaron" unicode="&#x161;" horiz-adv-x="1550" 
d="M1041 1208h-286l-212 254l1 1h284l95 -113l136 113h284v-1zM1486 717h-398q10 54 -69 70q-47 9 -196 9q-170 0 -226 -10.5t-65 -60.5q-7 -39 38 -53q49 -15 271 -15h37q238 0 367 -35.5t171 -107t20 -195.5q-25 -144 -98 -219t-226 -107.5t-437 -32.5q-107 0 -189.5 4
t-151.5 13t-117.5 22.5t-85 35t-58 48t-31.5 62.5t-9.5 78t9.5 96h418q-5 -30 4.5 -46.5t51 -23.5t79.5 -8.5t130 -1.5q169 0 225.5 11t65.5 61q7 40 -37 53q-46 15 -255 15h-54q-179 0 -291.5 19t-172.5 60t-75 105t1 154q13 76 39.5 129.5t78.5 99t133 72.5t202 42t287 15
q208 0 337.5 -21.5t195 -65.5t82.5 -111.5t-1 -159.5z" />
    <glyph glyph-name="Ydieresis" unicode="&#x178;" horiz-adv-x="1734" 
d="M967 1793l-41 -229h-229l40 229h230zM1368 1793l-40 -229h-230l41 229h229zM1351 1434h518l-818 -910l-92 -524h-438l92 524l-496 910h517l271 -497z" />
    <glyph glyph-name="Zcaron" unicode="&#x17d;" horiz-adv-x="1746" 
d="M1161 1549h-286l-213 254l1 1h284l95 -114l136 114h284l1 -1zM1797 1434l-62 -351l-1034 -725h906l-63 -358h-1593l62 350l1033 725h-906l64 359h1593z" />
    <glyph glyph-name="zcaron" unicode="&#x17e;" horiz-adv-x="1515" 
d="M1019 1208h-286l-213 254l1 1h284l96 -113l135 113h284l1 -1zM1525 1035l-49 -278l-841 -478h757l-50 -279h-1353l49 279l841 478h-757l49 278h1354z" />
    <glyph glyph-name="circumflex" unicode="&#x2c6;" horiz-adv-x="825" 
d="M682 1430l212 -254l-1 -1h-284l-95 114l-135 -114h-284l-1 1l302 254h286z" />
    <glyph glyph-name="caron" unicode="&#x2c7;" horiz-adv-x="1046" 
d="M923 1434v-1l-302 -254h-286l-212 254l1 1h284l95 -114l136 114h284z" />
    <glyph glyph-name="ilde" unicode="&#x2dc;" horiz-adv-x="831" 
d="M802 1428l118 -144q-60 -51 -128 -79q-60 -24 -125 -27q-3 0 -9.5 -0.5t-9.5 -0.5q-62 0 -176 30q-78 25 -133.5 23t-106.5 -46l-118 144q62 53 126 78q60 24 123 27q72 3 194 -29q79 -26 135 -23.5t110 47.5z" />
    <glyph glyph-name="endash" unicode="&#x2013;" horiz-adv-x="1273" 
d="M93 886h1147l-60 -344h-1148z" />
    <glyph glyph-name="emdash" unicode="&#x2014;" horiz-adv-x="1849" 
d="M95 889h1721l-61 -344h-1721z" />
    <glyph glyph-name="quoteleft" unicode="&#x2018;" horiz-adv-x="565" 
d="M393 1112h161l-71 -401h-402l71 401l258 322h140z" />
    <glyph glyph-name="quoteright" unicode="&#x2019;" horiz-adv-x="559" 
d="M208 1434h402l-71 -402l-257 -321h-141l157 321h-160z" />
    <glyph glyph-name="quotesinglbase" unicode="&#x201a;" horiz-adv-x="536" 
d="M13 409h402l-71 -401l-257 -322h-141l157 322h-160z" />
    <glyph glyph-name="quoteleftreversed" unicode="&#x201b;" horiz-adv-x="561" 
d="M603 1421l-71 -401h-160l43 -322h-140l-144 322l70 401h402z" />
    <glyph glyph-name="quotedblleft" unicode="&#x201c;" horiz-adv-x="1120" 
d="M951 1112h161l-71 -401h-402l71 401l258 322h140zM546 1434l-157 -322h161l-71 -401h-402l71 401l257 322h141z" />
    <glyph glyph-name="quotedblright" unicode="&#x201d;" horiz-adv-x="1112" 
d="M133 1032l71 402h402l-71 -402l-257 -321h-141l157 321h-161zM767 1434h401l-70 -402l-258 -321h-141l158 321h-161z" />
    <glyph glyph-name="quotedblbase" unicode="&#x201e;" horiz-adv-x="1099" 
d="M-57 7l70 402h402l-71 -402l-257 -321h-141l157 321h-160zM576 409h402l-71 -402l-258 -321h-140l157 321h-161z" />
    <glyph glyph-name="dagger" unicode="&#x2020;" horiz-adv-x="1282" 
d="M887 1143h402l-61 -344h-401l-197 -1118h-345l197 1118h-401l60 344h402l51 287h344z" />
    <glyph glyph-name="daggerdbl" unicode="&#x2021;" horiz-adv-x="1349" 
d="M1263 803h-402l-86 -490h401l-60 -345h-402l-51 -287h-344l51 287h-402l61 345h401l87 490h-402l61 344h401l51 287h344l-50 -287h401z" />
    <glyph glyph-name="bullet" unicode="&#x2022;" horiz-adv-x="667" 
d="M332 451q-110 0 -187.5 78t-77.5 188t77.5 187.5t187.5 77.5t187.5 -77.5t77.5 -187.5t-77.5 -188t-187.5 -78z" />
    <glyph glyph-name="ellipsis" unicode="&#x2026;" horiz-adv-x="1779" 
d="M563 2l71 402h402l-71 -402h-402zM1257 404h401l-70 -402h-402zM-59 2l70 402h402l-71 -402h-401z" />
    <glyph glyph-name="perthousand" unicode="&#x2030;" horiz-adv-x="2957" 
d="M2821 417q13 -52 2 -121q-17 -99 -74 -165t-132 -104q-71 -36 -139 -51.5t-209 -15.5q-140 0 -206.5 15.5t-125.5 54.5q-1 0 -4 -1t-4 -2q-71 -36 -139 -51.5t-209 -15.5q-145 0 -211 16.5t-131 60.5q-72 48 -92 129q-13 54 -3 120q32 182 206 270q70 35 138.5 50.5
t209.5 15.5q140 0 207 -15.5t126 -54.5q1 0 3.5 2t3.5 2q70 35 138.5 50.5t209.5 15.5q146 0 212.5 -16.5t130.5 -59.5q72 -48 92 -129zM1832 286q1 5 3.5 15t3.5 15q-10 69 -183 69q-81 0 -144 -25.5t-71 -73.5t44.5 -68.5t137.5 -20.5q70 0 128.5 19.5t79.5 57.5q1 2 1 6
v6zM2526 296q8 48 -44.5 68.5t-137.5 20.5q-71 0 -128.5 -19t-78.5 -57q-1 -2 -1 -6.5t-1 -6.5l-6 -30q10 -69 182 -69q81 0 144 25.5t71 73.5zM919 883q-70 -35 -138.5 -50.5t-209.5 -15.5q-145 0 -211 16.5t-131 60.5q-72 48 -92 129q-13 54 -3 120q32 182 206 270
q70 35 138.5 50.5t209.5 15.5q145 0 211.5 -16.5t131.5 -60.5q72 -48 92 -129q13 -52 2 -120q-32 -182 -206 -270zM431 1143q-8 -48 44.5 -68.5t137.5 -20.5q81 0 144.5 25.5t71.5 73.5h-1q8 48 -44.5 68.5t-137.5 20.5q-81 0 -144 -25.5t-71 -73.5zM1562 1436h422
l-1270 -1433h-422z" />
    <glyph glyph-name="guilsinglleft" unicode="&#x2039;" horiz-adv-x="677" 
d="M696 1469l-88 -502l-281 -250l193 -251l-89 -501l-385 501l88 502z" />
    <glyph glyph-name="guilsinglright" unicode="&#x203a;" horiz-adv-x="677" 
d="M247 1468l385 -501l-88 -502l-562 -501l89 502l280 250l-192 251z" />
    <glyph glyph-name="fraction" unicode="&#x2044;" horiz-adv-x="2420" 
d="M1811 1434h486l-1687 -1435h-487z" />
    <glyph glyph-name="Euro" unicode="&#x20ac;" horiz-adv-x="2121" 
d="M1197 1132q-343 0 -473 -202h471l-25 -144h-507q-19 -71 -25 -139h507l-25 -143h-472q59 -202 403 -202q200 0 314.5 56.5t171.5 160.5q5 8 13 26h455q-31 -97 -79 -179q-57 -100 -138 -174.5t-169 -118.5t-197.5 -70.5t-210.5 -35t-220 -6.5q-97 -1 -181.5 5.5
t-170 22.5t-155 47t-128 75.5t-99 110.5t-58.5 149q-14 56 -16 133h-146l25 143h129q8 71 24 139h-128l25 144h147q28 74 62 132q57 99 138 174t170 120t197.5 72.5t211 37t219.5 7.5q97 1 181.5 -5.5t170 -23t155 -47.5t128 -75.5t99 -110.5t58.5 -149q19 -79 16 -173h-456
q-1 11 -4 18q-11 52 -36 91t-71.5 70.5t-122 47.5t-178.5 16z" />
    <glyph glyph-name="trademark" unicode="&#x2122;" horiz-adv-x="868" 
d="M492 1434l-13 -76h-127l-42 -239h-94l42 239h-126l13 76h347zM827 1434h119l-56 -315h-94l25 145l-94 -145h-96l-43 145l-26 -145h-94l55 315h119l58 -195z" />
    <glyph glyph-name="minus" unicode="&#x2212;" horiz-adv-x="1273" 
d="M94 894h1148l-61 -345h-1148z" />
    <glyph glyph-name="A.alt1" unicode="&#xf000;" horiz-adv-x="2781" 
d="M2100 0l-96 159h-1425l-152 -159h-557l1367 1434h558l862 -1434h-557zM921 518h867l-335 557z" />
    <glyph glyph-name="B.alt1" unicode="&#xf001;" horiz-adv-x="2617" 
d="M2381 753q73 -57 105 -146.5t14 -193.5q-30 -171 -172.5 -292t-313.5 -121h-2016l253 1434h1936q171 0 270.5 -121t69.5 -292q-27 -152 -146 -268zM1999 1075h-1373l-36 -199h1374q41 0 75 29.5t42 70.5q7 41 -17 70t-65 29zM1953 358q41 0 75 29.5t42 70.5
q7 41 -17 70.5t-65 29.5h-1454l-35 -200h1454z" />
    <glyph glyph-name="C.alt1" unicode="&#xf002;" horiz-adv-x="2754" 
d="M919 319h795q180 0 292 53t170 186h486q-41 -139 -107 -241.5t-152 -170.5t-203 -109.5t-249 -59t-300 -17.5h-796q-96 0 -177.5 6.5t-158 20.5t-139 36.5t-116 55.5t-93 76.5t-67 100t-40.5 125t-11 153t19 183.5q36 207 120 353t218.5 234.5t308 128.5t403.5 40h796
q206 0 354.5 -32t252.5 -102.5t151.5 -185.5t40.5 -277h-485q-10 134 -103 186.5t-275 52.5h-795q-111 0 -191 -17.5t-146.5 -61.5t-108.5 -122.5t-63 -196.5q-11 -80 -11.5 -140.5t20 -104.5t50 -73.5t78 -47t104 -25t128.5 -7.5z" />
    <glyph glyph-name="D.alt1" unicode="&#xf003;" horiz-adv-x="2703" 
d="M1631 0h-1632l252 1434h1633q145 0 260 -16.5t208.5 -52t155 -92t99.5 -136t42.5 -184t-16.5 -236.5q-25 -140 -69 -249.5t-109 -188.5t-146 -133t-187.5 -86t-224.5 -46t-266 -14zM500 358h1194q86 0 150 8t125.5 31.5t104 62.5t74.5 103.5t48 153.5q10 56 10.5 102
t-9 81.5t-25.5 62.5t-42.5 46t-57 32t-71.5 20.5t-84 10.5t-96 3h-1195z" />
    <glyph glyph-name="E.alt1" unicode="&#xf004;" horiz-adv-x="2492" 
d="M500 358h1832l-64 -358h-2269l252 1434h2270l-63 -359h-1832l-31 -179h1752l-63 -358h-1753z" />
    <glyph glyph-name="F.alt1" unicode="&#xf005;" horiz-adv-x="2590" 
d="M437 0h-438l252 1434h2410l-64 -359h-1971l-31 -179h1891l-63 -358h-1892z" />
    <glyph glyph-name="G.alt1" unicode="&#xf006;" horiz-adv-x="2795" 
d="M1652 -40h-797q-96 0 -177.5 6.5t-158 20.5t-139 36.5t-116 55.5t-93 76.5t-67 100t-40.5 125t-11 153t19 183.5q36 207 120 353t218.5 234.5t308 128.5t403.5 40h797q402 0 601 -130t199 -427h-491q-21 111 -113 155t-260 44h-796q-111 0 -191 -17.5t-146.5 -61.5
t-108.5 -122.5t-63 -196.5q-11 -80 -11.5 -140.5t20 -104.5t50 -73.5t78 -47t104 -25t128.5 -7.5h796q132 0 226 27t158 92h-762l56 319h1314l-133 -757h-319l11 63q-222 -103 -614 -103z" />
    <glyph glyph-name="H.alt1" unicode="&#xf007;" horiz-adv-x="2719" 
d="M2282 1434h438l-252 -1434h-439l95 538h-1593l-94 -538h-438l252 1434h438l-94 -538h1592z" />
    <glyph glyph-name="I.alt1" unicode="&#xf008;" horiz-adv-x="1484" 
d="M1486 1434l-253 -1434h-1234l252 1434h1235z" />
    <glyph glyph-name="J.alt1" unicode="&#xf009;" horiz-adv-x="2525" 
d="M2114 1434h438l-126 -717q-31 -174 -96 -307.5t-150 -217.5t-198 -137t-230 -74t-255 -21h-797q-85 0 -159 8t-144.5 26t-127.5 48t-105 72.5t-80 101t-50 131.5t-17.5 166.5t19.5 203.5h438q-12 -67 -12 -122.5t9.5 -96t29.5 -72t46.5 -51.5t61.5 -33t72 -18t82 -5h797
q63 0 115.5 10.5t104 38t91 71.5t70.5 114.5t47 163.5z" />
    <glyph glyph-name="K.alt1" unicode="&#xf00a;" horiz-adv-x="2512" 
d="M1591 0l-897 485l-188 -94l-69 -391h-438l252 1434h438l-115 -652l1310 652h717l-1493 -743l1280 -691h-797z" />
    <glyph glyph-name="L.alt1" unicode="&#xf00b;" horiz-adv-x="2379" 
d="M500 358h1792l-63 -358h-2230l252 1434h438z" />
    <glyph glyph-name="M.alt1" unicode="&#xf00c;" horiz-adv-x="3117" 
d="M2521 1434h598l-253 -1434h-438l180 1024l-977 -1024h-398l-616 1024l-180 -1024h-438l252 1434h598l646 -1076z" />
    <glyph glyph-name="N.alt1" unicode="&#xf00d;" horiz-adv-x="2758" 
d="M2322 1434h438l-253 -1434h-478l-1421 974l-171 -974h-438l252 1434h478l1421 -974z" />
    <glyph glyph-name="O.alt1" unicode="&#xf00e;" horiz-adv-x="2772" 
d="M1918 1473q130 0 236 -12.5t196.5 -39.5t156.5 -69.5t114.5 -102.5t71 -138t26.5 -176.5t-19 -217.5q-31 -177 -93 -307.5t-149 -216.5t-211.5 -138t-267 -73.5t-328.5 -21.5h-797q-96 0 -177.5 6.5t-158 20.5t-138.5 36.5t-116 55.5t-93 76.5t-66.5 100t-40.5 125
t-11 153t19 183.5q36 207 120 353t218 234.5t307.5 128.5t403.5 40h797zM2222 717q12 68 12 122.5t-10.5 96t-33.5 72t-54 51t-75 33t-93.5 18t-112.5 5.5h-797q-111 0 -191 -17.5t-146 -61.5t-108 -122.5t-63 -196.5q-12 -68 -12 -122.5t11 -96t34.5 -72t54.5 -51t75 -33
t93.5 -18t111.5 -5.5h796q110 0 190 17.5t146.5 61.5t108.5 123t63 196z" />
    <glyph glyph-name="P.alt1" unicode="&#xf00f;" horiz-adv-x="2482" 
d="M2023 1434q109 0 201 -43t151.5 -115t84.5 -171.5t6 -208.5t-79.5 -208.5t-145 -171.5t-191.5 -115t-216 -43h-1334l-63 -358h-438l252 1434h1772zM2028 896q13 74 -30 126.5t-117 52.5h-1255l-63 -358h1254q74 0 136 52.5t75 126.5z" />
    <glyph glyph-name="Q.alt1" unicode="&#xf010;" horiz-adv-x="2781" 
d="M1918 1473q130 0 236 -12.5t196.5 -39.5t156.5 -69.5t114.5 -102.5t71 -138t26.5 -176.5t-19 -217.5q-58 -325 -215 -497l72 -88l-280 -238l-108 131q-199 -65 -518 -65h-797q-96 0 -177.5 6.5t-158 20.5t-138.5 36.5t-116 55.5t-93 76.5t-66.5 100t-40.5 125t-11 153
t19 183.5q36 207 120 353t218 234.5t307.5 128.5t403.5 40h797zM2222 717q12 68 12 122.5t-10.5 96t-33.5 72t-54 51t-75 33t-93.5 18t-112.5 5.5h-797q-111 0 -191 -17.5t-146 -61.5t-108 -122.5t-63 -196.5q-12 -68 -12 -122.5t11 -96t34.5 -72t54.5 -51t75 -33t93.5 -18
t111.5 -5.5h796q118 0 197 19l-119 140l281 239l114 -135q21 54 35 135z" />
    <glyph glyph-name="R.alt1" unicode="&#xf011;" horiz-adv-x="2633" 
d="M2586 896q-24 -133 -105 -248t-199 -190l161 -458h-493l-126 358h-1324l-63 -358h-438l252 1434h1892q109 0 201 -43t151.5 -115t84.5 -171.5t6 -208.5zM2148 896q13 74 -30.5 126.5t-117.5 52.5h-1374l-63 -358h1374q74 0 136 52.5t75 126.5z" />
    <glyph glyph-name="S.alt1" unicode="&#xf012;" horiz-adv-x="2709" 
d="M2653 956h-438q7 39 0.5 67t-35 45t-54 27t-85.5 14t-99 5t-123 1h-797q-81 0 -120 -0.5t-98.5 -3t-87.5 -9t-60.5 -17t-47 -28t-18.5 -42.5q-13 -75 71 -99q64 -20 273 -20h38h1h1h1h9h796q175 0 297 -9.5t234.5 -37.5t174.5 -77.5t90 -133t7 -200.5h-1
q-17 -98 -58 -173.5t-106 -127.5t-144.5 -87t-186.5 -54.5t-218.5 -27.5t-253.5 -8h-796q-88 0 -160 2.5t-143 9t-127.5 17.5t-109 27t-91.5 38.5t-71.5 52t-52.5 66.5t-31.5 82.5t-10.5 101.5t12 121h438q-7 -39 1 -67t38 -45t57.5 -27t89 -14t101 -5t123.5 -1h796
q82 0 122 0.5t103.5 3.5t95 10.5t67.5 20.5t53 34t22 50q16 89 -87 118q-74 21 -291 21h-39l-796 1q-175 0 -295 9t-228.5 36t-166.5 74.5t-83.5 127t-5.5 190.5q17 93 55 165t99.5 122t137.5 83.5t180 52.5t214 27t251 8h796q88 0 159.5 -2.5t142 -9t126 -17.5t107 -27
t89.5 -38.5t69.5 -51.5t50.5 -66t29.5 -83t9.5 -101.5t-12 -120.5z" />
    <glyph glyph-name="T.alt1" unicode="&#xf013;" horiz-adv-x="2596" 
d="M150 1434h2549l-64 -359h-1055l-189 -1075h-438l189 1075h-1055z" />
    <glyph glyph-name="U.alt1" unicode="&#xf014;" horiz-adv-x="2666" 
d="M2256 1434h438l-127 -717q-31 -175 -96 -307.5t-152 -217t-204.5 -137.5t-242 -74t-274.5 -21h-797q-93 0 -172.5 8t-154 26t-134 48t-109.5 72.5t-83 101t-51.5 131.5t-18 166.5t19.5 203.5l127 717h438l-126 -717q-12 -67 -12 -122t10.5 -96.5t32 -72.5t50 -51
t68 -32.5t83 -18t96.5 -5.5h796q95 0 167 18t134.5 61t104.5 122.5t62 196.5z" />
    <glyph glyph-name="V.alt1" unicode="&#xf015;" horiz-adv-x="2609" 
d="M2227 1434h518l-1368 -1434h-398l-862 1434h517l618 -1016z" />
    <glyph glyph-name="W.alt1" unicode="&#xf016;" horiz-adv-x="3493" 
d="M3142 1434h477l-929 -1434h-598l-294 1010l-649 -1010h-598l-424 1434h478l327 -1106l708 1106h466l318 -1106z" />
    <glyph glyph-name="X.alt1" unicode="&#xf017;" horiz-adv-x="2641" 
d="M2761 1434l-1122 -717l869 -717h-637l-591 487l-763 -487h-637l1122 717l-869 717h637l591 -488l763 488h637z" />
    <glyph glyph-name="Y.alt1" unicode="&#xf018;" horiz-adv-x="2516" 
d="M2102 1434h557l-1235 -1019l-73 -415h-438l73 415l-875 1019h557l595 -689z" />
    <glyph glyph-name="Z.alt1" unicode="&#xf019;" horiz-adv-x="2541" 
d="M2592 1434l-64 -359l-1679 -717h1553l-63 -358h-2390l64 358l1639 717h-1513l63 359h2390z" />
    <glyph glyph-name="A.alt2" unicode="&#xf01a;" horiz-adv-x="3649" 
d="M2934 0l-145 159h-2124l-200 -159h-598l1806 1434h558l1300 -1434h-597zM1117 518h1347l-564 622z" />
    <glyph glyph-name="B.alt2" unicode="&#xf01b;" horiz-adv-x="3414" 
d="M3178 753q73 -57 104.5 -146.5t13.5 -193.5q-30 -171 -172 -292t-313 -121h-2813l253 1434h2733q171 0 270.5 -121t69.5 -292q-27 -152 -146 -268zM2796 1075h-2170l-36 -199h2171q41 0 75 29.5t42 70.5q7 41 -17 70t-65 29zM2749 358q41 0 75 29.5t42 70.5
q7 41 -17 70.5t-65 29.5h-2250l-35 -200h2250z" />
    <glyph glyph-name="C.alt2" unicode="&#xf01c;" horiz-adv-x="3551" 
d="M919 319h1591q180 0 292 53t170 186h487q-41 -139 -107 -241.5t-152.5 -170.5t-203.5 -109.5t-249 -59t-300 -17.5h-1592q-96 0 -177.5 6.5t-158 20.5t-139 36.5t-116 55.5t-93 76.5t-67 100t-40.5 125t-11 153t19 183.5q36 207 120 353t218.5 234.5t308 128.5t403.5 40
h1592q206 0 354.5 -32t252.5 -102t152 -185.5t41 -277.5h-485q-10 134 -103 186.5t-275 52.5h-1592q-111 0 -191 -17.5t-146.5 -61.5t-108.5 -122.5t-63 -196.5q-11 -80 -11.5 -140.5t20 -104.5t50 -73.5t78 -47t104 -25t128.5 -7.5z" />
    <glyph glyph-name="D.alt2" unicode="&#xf01d;" horiz-adv-x="3500" 
d="M2428 0h-2429l252 1434h2430q145 0 260 -16.5t208.5 -52t155 -92t99.5 -136t42.5 -184t-16.5 -236.5q-25 -140 -69 -249.5t-109 -188.5t-146 -133t-187.5 -86t-224.5 -46t-266 -14zM500 358h1991q86 0 150 8t125.5 31.5t104 62.5t74.5 103.5t48 153.5q10 56 10.5 102
t-9 81.5t-25.5 62.5t-42.5 46t-57 32t-71.5 20.5t-84 10.5t-96 3h-1992z" />
    <glyph glyph-name="E.alt2" unicode="&#xf01e;" horiz-adv-x="3287" 
d="M500 358h2628l-63 -358h-3066l252 1434h3067l-64 -359h-2628l-31 -179h2548l-63 -358h-2549z" />
    <glyph glyph-name="F.alt2" unicode="&#xf01f;" horiz-adv-x="3366" 
d="M437 0h-438l252 1434h3186l-63 -359h-2748l-31 -179h2668l-64 -358h-2668z" />
    <glyph glyph-name="G.alt2" unicode="&#xf020;" horiz-adv-x="3590" 
d="M2447 -40h-1592q-96 0 -177.5 6.5t-158 20.5t-139 36.5t-116 55.5t-93 76.5t-67 100t-40.5 125t-11 153t19 183.5q36 207 120 353t218.5 234.5t308 128.5t403.5 40h1592q402 0 601.5 -130t199.5 -427h-492q-21 111 -112.5 155t-259.5 44h-1592q-111 0 -191 -17.5
t-146.5 -61.5t-108.5 -122.5t-63 -196.5q-11 -80 -11.5 -140.5t20 -104.5t50 -73.5t78 -47t104 -25t128.5 -7.5h1592q132 0 225.5 27t157.5 92h-1557l56 319h2110l-134 -757h-318l11 63q-222 -103 -615 -103z" />
    <glyph glyph-name="H.alt2" unicode="&#xf021;" horiz-adv-x="3516" 
d="M3079 1434h438l-253 -1434h-438l95 538h-2390l-94 -538h-438l252 1434h438l-94 -538h2389z" />
    <glyph glyph-name="I.alt2" unicode="&#xf022;" horiz-adv-x="2281" 
d="M2282 1434l-253 -1434h-2030l252 1434h2031z" />
    <glyph glyph-name="J.alt2" unicode="&#xf023;" horiz-adv-x="3319" 
d="M2910 1434h438l-126 -717q-31 -174 -96 -307.5t-150 -217.5t-198 -137t-230 -74t-255 -21h-1593q-85 0 -159 8t-144.5 26t-127.5 48t-105 72.5t-80 101t-50 131.5t-17.5 166.5t19.5 203.5h438q-12 -67 -12 -122.5t9.5 -96t29.5 -72t46.5 -51.5t61.5 -33t72 -18t82 -5
h1593q63 0 115.5 10.5t104 38t91 71.5t70.5 114.5t47 163.5z" />
    <glyph glyph-name="K.alt2" unicode="&#xf024;" horiz-adv-x="3270" 
d="M3397 1434l-2199 -731l1946 -703h-915l-1508 544l-200 -66l-84 -478h-438l252 1434h438l-114 -647l1946 647h876z" />
    <glyph glyph-name="L.alt2" unicode="&#xf025;" horiz-adv-x="3176" 
d="M500 358h2588l-63 -358h-3026l252 1434h438z" />
    <glyph glyph-name="M.alt2" unicode="&#xf026;" horiz-adv-x="3913" 
d="M3357 1434h558l-253 -1434h-438l188 1066l-1343 -1066h-478l-966 1066l-188 -1066h-438l252 1434h558l1067 -1177z" />
    <glyph glyph-name="N.alt2" unicode="&#xf027;" horiz-adv-x="3555" 
d="M3119 1434h438l-253 -1434h-478l-2210 1018l-179 -1018h-438l252 1434h478l2210 -1019z" />
    <glyph glyph-name="O.alt2" unicode="&#xf028;" horiz-adv-x="3569" 
d="M2714 1473q152 0 272 -17.5t218 -54.5t162 -96.5t104 -143.5t44.5 -194.5t-17.5 -249.5q-31 -177 -93 -307.5t-149.5 -216.5t-211.5 -138t-267 -73.5t-329 -21.5h-1593q-96 0 -177.5 6.5t-158 20.5t-138.5 36.5t-116 55.5t-93 76.5t-66.5 100t-40.5 125t-11 153t19 183.5
q36 207 120 353t218 234.5t307.5 128.5t403.5 40h1593zM3019 717q12 68 12 122.5t-10.5 96t-33.5 72t-54.5 51t-75.5 33t-93.5 18t-112.5 5.5h-1593q-111 0 -191 -17.5t-146 -61.5t-108 -122.5t-63 -196.5q-12 -68 -12 -122.5t11 -96t34.5 -72t54.5 -51t75 -33t93.5 -18
t111.5 -5.5h1593q110 0 190 17.5t146.5 61.5t108.5 123t63 196z" />
    <glyph glyph-name="P.alt2" unicode="&#xf029;" horiz-adv-x="3278" 
d="M2820 1434q109 0 201 -43t151.5 -115t84.5 -171.5t6 -208.5q-26 -146 -120 -270t-230.5 -196t-282.5 -72h-2130l-63 -358h-438l252 1434h2569zM2825 896q13 74 -30.5 126.5t-117.5 52.5h-2051l-63 -358h2051q74 0 136 52.5t75 126.5z" />
    <glyph glyph-name="Q.alt2" unicode="&#xf02a;" horiz-adv-x="3577" 
d="M2714 1473q152 0 272 -17.5t218 -54.5t162 -96.5t104 -143.5t44.5 -194.5t-17.5 -249.5q-57 -323 -216 -497l73 -88l-281 -238l-108 131q-199 -65 -518 -65h-1593q-96 0 -177.5 6.5t-158 20.5t-138.5 36.5t-116 55.5t-93 76.5t-66.5 100t-40.5 125t-11 153t19 183.5
q36 207 120 353t218 234.5t307.5 128.5t403.5 40h1593zM3019 717q12 68 12 122.5t-10.5 96t-33.5 72t-54.5 51t-75.5 33t-93.5 18t-112.5 5.5h-1593q-111 0 -191 -17.5t-146 -61.5t-108 -122.5t-63 -196.5q-12 -68 -12 -122.5t11 -96t34.5 -72t54.5 -51t75 -33t93.5 -18
t111.5 -5.5h1593q117 0 196 19l-119 140l281 239l114 -135q23 58 36 135z" />
    <glyph glyph-name="R.alt2" unicode="&#xf02b;" horiz-adv-x="3426" 
d="M3380 896q-24 -133 -105 -248t-199 -190l161 -458h-493l-126 358h-2118l-63 -358h-438l252 1434h2686q109 0 201 -43t151.5 -115t84.5 -171.5t6 -208.5zM2942 896q13 74 -30.5 126.5t-117.5 52.5h-2168l-63 -358h2168q74 0 136 52.5t75 126.5z" />
    <glyph glyph-name="S.alt2" unicode="&#xf02c;" horiz-adv-x="3500" 
d="M3443 956h-438q7 39 0.5 67t-35 45t-54 27t-85.5 14t-99 5t-123 1h-1587q-81 0 -120 -0.5t-98.5 -3t-87.5 -9t-60.5 -17t-47 -28t-18.5 -42.5q-13 -75 71 -99q64 -20 273 -20h38h1h1h1h9h1587q175 0 297 -9.5t234.5 -37.5t174 -77.5t89.5 -133t7 -200.5h-1
q-17 -98 -58 -173.5t-105.5 -127.5t-144 -87t-186.5 -54.5t-218.5 -27.5t-253.5 -8h-1587q-88 0 -160 2.5t-143 9t-127.5 17.5t-109 27t-91.5 38.5t-71.5 52t-52.5 66.5t-31.5 82.5t-10.5 101.5t12 121h438q-7 -39 1 -67t38 -45t57.5 -27t89 -14t101 -5t123.5 -1h1587
q82 0 122 0.5t103 3.5t94.5 10.5t67.5 20.5t53 34t22 50q16 89 -87 118q-74 21 -291 21h-39l-1586 1q-175 0 -295 9t-228.5 36t-166.5 74.5t-83.5 127t-5.5 190.5q17 93 55 165t99.5 122t137.5 83.5t180 52.5t214 27t251 8h1586q88 0 159.5 -2.5t142 -9t126 -17.5t107 -27
t89.5 -38.5t69.5 -51.5t50.5 -66t29.5 -83t9.5 -101.5t-12 -120.5z" />
    <glyph glyph-name="T.alt2" unicode="&#xf02d;" horiz-adv-x="3393" 
d="M150 1434h3345l-63 -359h-1454l-189 -1075h-438l189 1075h-1453z" />
    <glyph glyph-name="U.alt2" unicode="&#xf02e;" horiz-adv-x="3463" 
d="M3052 1434h438l-126 -717q-31 -175 -96 -307.5t-152.5 -217t-205 -137.5t-242 -74t-274.5 -21h-1593q-93 0 -172.5 8t-154 26t-134 48t-109.5 72.5t-83 101t-51.5 131.5t-18 166.5t19.5 203.5l127 717h438l-126 -717q-12 -67 -12 -122t10.5 -96.5t32 -72.5t50 -51
t68 -32.5t83 -18t96.5 -5.5h1592q75 0 135 10.5t116.5 38t97.5 71.5t72.5 114t47.5 164z" />
    <glyph glyph-name="V.alt2" unicode="&#xf02f;" horiz-adv-x="3473" 
d="M3057 1434h558l-1806 -1434h-398l-1300 1434h557l1000 -1103z" />
    <glyph glyph-name="W.alt2" unicode="&#xf030;" horiz-adv-x="4288" 
d="M3944 1434h478l-1129 -1434h-598l-483 1099l-871 -1099h-597l-623 1434h478l513 -1181l920 1181h478l504 -1181z" />
    <glyph glyph-name="X.alt2" unicode="&#xf031;" horiz-adv-x="3430" 
d="M3555 1434l-1480 -717l1227 -717h-716l-903 527l-1088 -527h-717l1480 717l-1228 717h717l903 -527l1088 527h717z" />
    <glyph glyph-name="Y.alt2" unicode="&#xf032;" horiz-adv-x="3305" 
d="M2854 1434h598l-1642 -1069l-65 -365h-438l65 365l-1265 1069h597l936 -789z" />
    <glyph glyph-name="Z.alt2" unicode="&#xf033;" horiz-adv-x="3336" 
d="M3388 1434l-63 -359l-2277 -717h2150l-63 -358h-3186l64 358l2237 717h-2111l63 359h3186z" />
    </font>
</defs>
</svg>
